<?xml version="1.0" standalone="no"?>
<!DOCTYPE svg PUBLIC "-//W3C//DTD SVG 1.1//EN" "http://www.w3.org/Graphics/SVG/1.1/DTD/svg11.dtd" >
<svg xmlns="http://www.w3.org/2000/svg">
<metadata>Generated by IcoMoon</metadata>
<defs>
<font id="font-brave" horiz-adv-x="1024">
<font-face units-per-em="1024" ascent="960" descent="-64" />
<missing-glyph horiz-adv-x="1024" />
<glyph unicode="&#x20;" horiz-adv-x="512" d="" />
<glyph unicode="&#xe900;" glyph-name="restaurant" d="M216.104 564.358l-211.154-259.833c0 0-16.797-28.578 11.493-57.156s73.381 0 73.381 0l209.533 257.216c14.678 5.918 30.988 7.74 49.475 9.801 49.386 5.508 114.306 12.749 205.147 104.516 84.873 85.737 113.165 257.209 56.585 314.368-48.205 48.693-211.603 36.864-311.207-85.739-77.338-95.197-80.681-210.488-82.17-261.844-0.274-9.447-0.485-16.73-1.083-21.327zM323.031 21.952l230.757 249.805c-1.033 4.041-2.257 8.563-3.584 13.478-10.445 38.583-27.345 101.035-7.893 139.11 21.926 42.918 63.953 89.421 82.227 107.302l159.889 158.92c0 0 30.839 28.814 59.388 2.037 28.553-26.777-0.759-55.64-0.759-55.64l-136.286-158.97c0 0-11.341-14.208 0-25.374 11.337-11.166 27.409-1.451 27.409-1.451l134.003 152.808c0 0 27.789 36.914 57.865 8.148 30.071-28.765 0-57.629 0-57.629l-137.050-156.981c0 0-10.825-14.455 1.737-26.825s25.673 0 25.673 0l135.526 154.944c0 0 28.932 28.519 56.341 6.012s10.658-51.371 10.658-51.371l-147.708-190.063c-36.544-44.71-137.045-123.401-246.686-80.478l-191.868-214.609c0 0-54.82-80.478-109.639-53.653s0 80.478 0 80.478z" />
<glyph unicode="&#xe901;" glyph-name="a" d="M0 720c0 132.548 107.452 240 240 240h544c132.552 0 240-107.452 240-240v-544c0-132.552-107.448-240-240-240h-544c-132.548 0-240 107.448-240 240v544zM240 864c-79.529 0-144-64.471-144-144v-544c0-79.528 64.471-144 144-144h544c79.528 0 144 64.472 144 144v544c0 79.529-64.472 144-144 144h-544zM584.080 327.2h-147.6l-31.68-117.36h-100.8l149.76 470.16h117.36l149.040-470.16h-104.4l-31.68 117.36zM563.92 403.52l-12.96 48.24c-5.76 21.12-14.4 54.24-25.92 99.36l-13.68 53.28h-2.88c-14.4-61.92-27.12-112.8-38.16-152.64l-12.96-48.24h106.56z" />
<glyph unicode="&#xe902;" glyph-name="alert-info" d="M460.636 432.185l-16.106 187.915c-3.020 36.615-4.53 62.9-4.53 78.854 0 21.708 7.298 38.642 21.894 50.804s33.806 18.242 57.629 18.242c28.857 0 48.15-7.781 57.881-23.342s14.596-37.988 14.596-67.281c0-17.262-1.174-34.785-3.523-52.569l-21.642-193.408c-2.349-23.015-7.382-40.669-15.099-52.962s-20.468-18.438-38.252-18.438c-18.119 0-30.702 5.95-37.748 17.85s-12.079 30.012-15.099 54.335zM512.477 152c-19.391 0-36.318 6.344-50.782 19.023-14.463 12.682-21.695 30.422-21.695 53.218 0 19.906 6.914 36.842 20.742 50.81s30.755 20.95 50.782 20.95c20.026 0 37.113-6.983 51.258-20.95s21.218-30.903 21.218-50.81c0-22.475-7.152-40.134-21.457-52.977-14.305-12.84-30.994-19.264-50.066-19.264zM512-56c-278.351 0-504 225.649-504 504s225.649 504 504 504c278.351 0 504-225.649 504-504s-225.649-504-504-504zM512 40c225.332 0 408 182.668 408 408s-182.668 408-408 408c-225.332 0-408-182.668-408-408s182.668-408 408-408z" />
<glyph unicode="&#xe903;" glyph-name="alert-success" d="M512-56c-278.351 0-504 225.649-504 504s225.649 504 504 504c278.351 0 504-225.649 504-504s-225.649-504-504-504zM512 40c225.332 0 408 182.668 408 408s-182.668 408-408 408c-225.332 0-408-182.668-408-408s182.668-408 408-408zM706.884 619.713c18.391 17.1 47.344 16.247 64.668-1.906s16.459-46.731-1.931-63.831l-341.667-317.689c-17.743-16.498-45.476-16.366-63.057 0.3l-150.838 142.992c-18.223 17.274-18.808 45.86-1.306 63.846s46.461 18.564 64.683 1.29l119.454-113.241 309.994 288.238z" />
<glyph unicode="&#xe904;" glyph-name="alert-warning" d="M498.494 698.735l-346.883-546.159c-4.738-7.456-2.531-17.344 4.928-22.080 2.565-1.632 5.54-2.496 8.578-2.496h693.763c8.84 0 16 7.16 16 16 0 3.040-0.864 6.016-2.488 8.576l-346.886 546.159c-4.738 7.459-14.626 9.666-22.085 4.928-1.985-1.261-3.667-2.943-4.928-4.928zM552.844 834.066l463.932-723.626c19.728-30.768-3.272-70.44-40.848-70.44h-927.859c-37.571 0-60.573 39.672-40.844 70.44l463.931 723.626c18.75 29.246 62.938 29.246 81.688 0zM477.033 363.877l-10.172 114.223c-1.907 22.257-2.861 38.234-2.861 47.93 0 13.195 4.61 23.489 13.828 30.881s21.35 11.089 36.397 11.089c18.226 0 30.411-4.73 36.557-14.189s9.218-23.090 9.218-40.896c0-10.492-0.742-21.143-2.225-31.954l-13.67-117.562c-1.483-13.99-4.662-24.721-9.536-32.192s-12.927-11.208-24.159-11.208c-11.443 0-19.39 3.617-23.841 10.85s-7.629 18.242-9.537 33.027zM508.291 192c-11.85 0-22.194 3.875-31.033 11.626s-13.258 18.59-13.258 32.522c0 12.165 4.225 22.515 12.675 31.050s18.795 12.802 31.034 12.802c12.238 0 22.68-4.267 31.324-12.802s12.967-18.886 12.967-31.050c0-13.734-4.371-24.526-13.113-32.374s-18.94-11.773-30.596-11.773z" />
<glyph unicode="&#xe905;" glyph-name="arrow-line-donw" d="M451.5 847.5v-631.105l-275.861 275.861c-21.999 21.999-57.667 21.999-79.666 0-0.046-0.047-0.094-0.094-0.14-0.141-22.022-22.178-21.959-57.99 0.142-80.089l412.026-412.026 412.168 412.167c22 21.999 22 57.666 0 79.666-22.008 22.004-57.68 22.020-79.704 0.035l-275.964-275.473v631.105c0 31.204-25.296 56.5-56.5 56.5s-56.5-25.296-56.5-56.5z" />
<glyph unicode="&#xe906;" glyph-name="arrow-line-left" d="M903.504 508.5h-631.109l275.861 275.861c21.999 21.999 21.999 57.667 0 79.666-0.047 0.047-0.094 0.094-0.141 0.141-22.178 22.021-57.99 21.958-80.089-0.142l-412.026-412.026 412.167-412.168c21.999-22 57.666-22 79.666 0 22.004 22.008 22.020 57.68 0.035 79.704l-275.473 275.964h631.109c31.2 0 56.496 25.296 56.496 56.5s-25.296 56.5-56.496 56.5z" />
<glyph unicode="&#xe907;" glyph-name="arrow-line-right" d="M112.5 395.5h631.105l-275.861-275.86c-21.999-22-21.999-57.672 0-79.664 0.047-0.048 0.094-0.096 0.141-0.144 22.178-22.024 57.99-21.96 80.089 0.144l412.026 412.024-412.167 412.167c-21.999 21.999-57.666 21.999-79.666 0-22.004-22.005-22.020-57.676-0.035-79.701l275.473-275.966h-631.105c-31.204 0-56.5-25.296-56.5-56.5s25.296-56.5 56.5-56.5z" />
<glyph unicode="&#xe908;" glyph-name="arrow-line-up" d="M564.5 56.504v631.101l275.86-275.861c22-21.999 57.672-21.999 79.664 0 0.048 0.047 0.096 0.094 0.144 0.141 22.024 22.178 21.96 57.99-0.144 80.089l-412.024 412.026-412.167-412.167c-21.999-21.999-21.999-57.666 0-79.666 22.005-22.004 57.676-22.020 79.701-0.035l275.966 275.473v-631.101c0-31.208 25.296-56.504 56.5-56.504s56.5 25.296 56.5 56.504z" />
<glyph unicode="&#xe909;" glyph-name="arrow-o-donw" d="M856.712 647.614c51.312-11.794 56.064-41.826 14.248-90.094l-319.746-309.742c-21.958-21.272-56.919-21.001-78.546 0.609l-320.251 320c-31.239 41.031-26.045 67.44 15.582 79.227h688.712z" />
<glyph unicode="&#xe90a;" glyph-name="arrow-o-du" d="M738.543 856c34.181-8.389 37.345-29.749 9.493-64.081l-212.998-220.31c-14.628-15.13-37.917-14.937-52.323 0.433l-213.333 227.606c-20.81 29.184-17.35 47.968 10.38 56.352h458.781zM284.251 40.386c-34.181 8.162-37.345 28.944-9.493 62.347l212.998 214.348c14.628 14.72 37.917 14.533 52.323-0.421l213.333-221.447c20.81-28.395 17.35-46.67-10.38-54.827h-458.781z" />
<glyph unicode="&#xe90b;" glyph-name="arrow-o-left" d="M719.204 107.208c-11.794-51.312-41.826-56.064-90.094-14.256l-309.742 319.752c-21.272 21.958-21.001 56.919 0.609 78.546l320 320.251c41.031 31.239 67.441 26.045 79.227-15.582v-688.71z" />
<glyph unicode="&#xe90c;" glyph-name="arrow-o-right" d="M303.59 789.179c11.794 51.311 41.826 56.062 90.094 14.251l309.742-319.75c21.271-21.958 21-56.919-0.609-78.546l-320-320.247c-41.032-31.24-67.441-26.048-79.227 15.576v688.715z" />
<glyph unicode="&#xe90d;" glyph-name="arrow-o-ud" d="M284.25 560.386c-34.18 8.39-37.345 29.75-9.493 64.082l212.998 220.31c14.628 15.13 37.917 14.937 52.323-0.434l213.333-227.606c20.81-29.184 17.35-47.968-10.381-56.352h-458.781zM738.543 328c34.181-8.162 37.345-28.945 9.493-62.347l-212.998-214.349c-14.627-14.72-37.916-14.528-52.322 0.424l-213.333 221.446c-20.81 28.394-17.35 46.67 10.38 54.826h458.781z" />
<glyph unicode="&#xe90e;" glyph-name="arrow-o-up" d="M170.41 232.386c-51.311 11.794-56.062 41.826-14.251 90.094l319.75 309.742c21.958 21.272 56.919 21.001 78.546-0.609l320.25-320c31.24-41.031 26.048-67.44-15.584-79.227h-688.71z" />
<glyph unicode="&#xe90f;" glyph-name="bell" d="M360 80h82.909c0-36.152 30.934-65.456 69.091-65.456s69.091 29.304 69.091 65.456h82.909c0-79.528-68.053-144-152-144s-152 64.472-152 144zM96 160c0.614 46.793 11.34 59.048 28.634 78.81 2.478 2.833 7.832 9.086 7.832 9.086 14.519 17.31 29.682 30.804 39.932 39.242 1.318 1.085 2.563 2.096 3.742 3.054 8.858 7.194 23.859 17.808 23.859 29.808v216c0 125.523 83.524 206.449 192.398 239.3-10.391 17.942-16.318 38.649-16.318 60.7 0 68.483 57.166 124 127.683 124s127.683-55.517 127.683-124c0-20.499-5.122-39.836-14.19-56.87 115.046-30.061 206.745-112.413 206.745-243.13v-218.826c5.944-11.89 18.496-24.157 29.8-33.398 10.32-8.441 22.84-18.674 37.464-35.99 2.76-3.266 5.392-6.256 7.888-9.090 17.424-19.769 28.232-32.029 28.848-78.841 0-44.104-35.752-79.856-79.856-79.856l-672.316 0.168c-44.088 0-79.828 35.744-79.828 79.832zM503.762 792c25.022 0 45.307 19.699 45.307 44s-20.285 44-45.307 44c-25.022 0-45.307-19.699-45.307-44s20.285-44 45.307-44zM820.912 176c0 34.37-23.498 51.703-47.195 69.185-24.108 17.785-45.717 35.802-45.717 71.99v202.826c-2.731 54.584-43.010 168-212.039 168-115.169 0-219.961-37.004-219.961-152v-223.914c0-36.174-22.13-49.017-46.062-66.794-23.524-17.475-46.849-34.802-46.849-69.159l617.823-0.132z" />
<glyph unicode="&#xe910;" glyph-name="blocks-web" d="M0 720v-544c0-132.552 107.452-240 240-240h544c132.552 0 240 107.448 240 240v544c0 132.548-107.448 240-240 240h-544c-132.548 0-240-107.452-240-240zM432 32v504h496v-360c0-79.528-64.472-144-144-144h-352zM336 32h-96c-79.529 0-144 64.472-144 144v360h240v-504zM928 632h-832v88c0 79.529 64.471 144 144 144h544c79.528 0 144-64.471 144-144v-88z" />
<glyph unicode="&#xe911;" glyph-name="blocks" d="M112 864c-8.837 0-16-7.163-16-16v-240c0-8.837 7.163-16 16-16h240c8.837 0 16 7.163 16 16v240c0 8.837-7.163 16-16 16h-240zM112 960h240c61.856 0 112-50.144 112-112v-240c0-61.856-50.144-112-112-112h-240c-61.856 0-112 50.144-112 112v240c0 61.856 50.144 112 112 112zM112 304c-8.837 0-16-7.163-16-16v-240c0-8.837 7.163-16 16-16h240c8.837 0 16 7.163 16 16v240c0 8.837-7.163 16-16 16h-240zM112 400h240c61.856 0 112-50.144 112-112v-240c0-61.856-50.144-112-112-112h-240c-61.856 0-112 50.144-112 112v240c0 61.856 50.144 112 112 112zM672 864c-8.837 0-16-7.163-16-16v-240c0-8.837 7.163-16 16-16h240c8.837 0 16 7.163 16 16v240c0 8.837-7.163 16-16 16h-240zM672 960h240c61.856 0 112-50.144 112-112v-240c0-61.856-50.144-112-112-112h-240c-61.856 0-112 50.144-112 112v240c0 61.856 50.144 112 112 112zM672 304c-8.837 0-16-7.163-16-16v-240c0-8.837 7.163-16 16-16h240c8.837 0 16 7.163 16 16v240c0 8.837-7.163 16-16 16h-240zM672 400h240c61.856 0 112-50.144 112-112v-240c0-61.856-50.144-112-112-112h-240c-61.856 0-112 50.144-112 112v240c0 61.856 50.144 112 112 112z" />
<glyph unicode="&#xe912;" glyph-name="book" d="M80 752v-608c0-114.872 93.125-208 208-208h656v656c0 26.51-21.488 48-48 48h-608c-61.856 0-112 50.144-112 112s50.144 112 112 112h608c26.512 0 48 21.49 48 48s-21.488 48-48 48h-608c-114.875 0-208-93.125-208-208zM176 144v432.698c32.33-20.698 70.763-32.698 112-32.698h560v-512h-560c-61.856 0-112 50.144-112 112zM304 800h592c26.512 0 48-21.49 48-48s-21.488-48-48-48h-592c-26.51 0-48 21.49-48 48s21.49 48 48 48z" />
<glyph unicode="&#xe913;" glyph-name="bookmark" d="M274.889 960h482.222c98.801 0 178.889-82.27 178.889-183.757v-816.235c0-19.504-21.472-30.84-36.912-19.488l-364.135 267.663c-13.635 10.023-31.99 9.94-45.539-0.206l-356.335-266.826c-15.42-11.544-37.078-0.232-37.078 19.368v815.723c0 101.486 80.091 183.757 178.889 183.757zM274.889 864.127c-47.251 0-85.555-39.347-85.555-87.884v-671.107l299.953 219.018c13.634 9.955 31.936 9.84 45.449-0.285l307.929-230.717v683.091c0 48.537-38.304 87.884-85.553 87.884h-482.222z" />
<glyph unicode="&#xe914;" glyph-name="box-close" d="M497.653 925.665l-388.812-129.836c-13.405-4.476-24.074-14.965-28.973-28.48l8.132-591.349c0-19.336 12.078-44.064 29.656-51.208l377.263-153.448c10.56-4.296 22.299-4.456 32.971-0.464l388.814 145.576c18.2 6.816 30.304 24.52 30.304 44.331v590.164c-0.464 1.355-1.192 3.876-2.056 6.899-2.264 7.91-5.512 19.258-7.72 22.15-5.592 7.314-13.232 12.878-22.072 15.829l-388.813 129.836c-9.322 3.113-19.372 3.113-28.694 0zM465.805 84.816l-281.805 123.184-8 452 289.805-117.68v-457.504zM558.195 82.792v459.528l296.421 101.68v-450.227l-296.421-110.981zM760.727 728l-248.727-76-196.623 76h445.35zM696.32 776h-368.308l183.988 64 184.32-64z" />
<glyph unicode="&#xe915;" glyph-name="box-open" d="M497.653 925.665c9.322 3.113 19.372 3.113 28.694 0l388.813-129.836c13.672-4.565 24.48-15.377 29.24-29.246l76.992-224.262c4.104-11.937 3.344-25.054-2.112-36.414-5.448-11.358-15.128-20.008-26.864-24.008l-45.408-15.469v-305.642c0-19.811-12.104-37.515-30.304-44.331l-388.814-145.576c-10.672-3.992-22.411-3.832-32.971 0.464l-377.263 153.448c-17.578 7.144-29.114 24.528-29.114 43.864v304.766l-57.541 20.483c-11.718 4.172-21.301 12.986-26.591 24.457s-5.843 24.635-1.533 36.527l76.992 212.459c4.898 13.515 15.568 24.004 28.973 28.48l388.812 129.836zM180.932 440.532v-239.85l284.873-115.866v369.493l-37.65-62.529c-11.368-18.878-34.056-27.133-54.538-19.842l-192.685 68.594zM558.195 473.325v-390.533l296.421 110.981v241.182l-185.571-63.22c-19.27-6.565-40.473 0.504-52.248 17.418l-58.602 84.172zM586.058 596.176l86.199-123.813 246.422 83.95-46.488 135.41-286.134-95.547zM752.070 750.951l-240.070-80.167-240.070 80.167 240.070 80.166 240.070-80.166zM151.076 691.969l-45.2-124.727 263.058-93.646 73.004 121.245-290.862 97.128z" />
<glyph unicode="&#xe916;" glyph-name="box" d="M464.32 865.211h-217.862c-2.544 0-4.936-1.21-6.444-3.259l-119.15-161.952h344.358l-0.902 165.211zM560.322 865.211l0.902-165.211h325.353l-129.544 162.203c-1.518 1.901-3.818 3.008-6.251 3.008h-190.459zM513.615 604l-47.868-0.261-0.001 0.261h-371.871v-564.891c0-4.418 3.582-8 8-8h823.219c4.418 0 8 3.582 8 8v564.891h-419.478zM463.796 961.211l-0.057 10.526 95.999 0.524 0.060-11.050h190.983c31.623 0 61.529-14.388 81.264-39.098l174.313-218.259c14.719-18.43 22.736-41.315 22.736-64.902v-599.843c0-57.438-46.562-104-104-104h-823.219c-57.438 0-104 46.562-104 104v621.58c0 22.175 7.088 43.769 20.229 61.631l144.583 196.521c19.599 26.639 50.699 42.369 83.771 42.369h217.339z" />
<glyph unicode="&#xe917;" glyph-name="bubble-point" d="M0 769.489c0 105.217 85.962 190.511 192 190.511h640c106.040 0 192-85.294 192-190.511v-416.743c0-105.216-85.96-190.511-192-190.511h-286.218c-29.38 0-57.143-13.346-75.349-36.234l-136.759-171.88c-12.666-15.92-34.106-22.136-53.417-15.48-19.311 6.648-32.258 24.704-32.258 44.992v146.848c0 17.536-14.327 31.754-32 31.754h-24c-106.038 0-192 85.295-192 190.511v416.743zM192 864.745c-53.019 0-96-42.648-96-95.256v-416.743c0-52.608 42.981-95.255 96-95.255h24c70.693 0 128-56.863 128-127.010v-9.656l51.085 64.204c36.411 45.763 91.937 72.462 150.698 72.462h286.218c53.016 0 96 42.647 96 95.255v416.743c0 52.608-42.984 95.256-96 95.256h-640zM344 563.102c0-43.84-35.818-79.379-80-79.379s-80 35.539-80 79.379c0 43.841 35.818 79.38 80 79.38s80-35.539 80-79.38zM592 563.102c0-43.84-35.817-79.379-80-79.379s-80 35.539-80 79.379c0 43.841 35.818 79.38 80 79.38s80-35.539 80-79.38zM840 563.102c0-43.84-35.816-79.379-80-79.379s-80 35.539-80 79.379c0 43.841 35.817 79.38 80 79.38s80-35.539 80-79.38z" />
<glyph unicode="&#xe918;" glyph-name="calendar-ok" d="M928 576h-832v-456c0-48.6 39.399-88 88-88h656c48.6 0 88 39.4 88 88v456zM96 672h832v104c0 48.601-39.4 88-88 88h-656c-48.601 0-88-39.399-88-88v-104zM703.251 485.158c16.226 15.088 41.774 14.335 57.059-1.682s14.523-41.233-1.704-56.322l-301.471-280.315c-15.655-14.552-40.126-14.44-55.638 0.264l-133.092 126.172c-16.078 15.242-16.594 40.464-1.153 56.334s40.995 16.38 57.074 1.138l105.401-99.918 273.525 254.328zM0 776c0 101.62 82.38 184 184 184h656c101.624 0 184-82.38 184-184v-656c0-101.624-82.376-184-184-184h-656c-101.62 0-184 82.376-184 184v656z" />
<glyph unicode="&#xe919;" glyph-name="calendar" d="M928 576h-832v-456c0-48.6 39.399-88 88-88h656c48.6 0 88 39.4 88 88v456zM96 672h832v104c0 48.601-39.4 88-88 88h-656c-48.601 0-88-39.399-88-88v-104zM0 776c0 101.62 82.38 184 184 184h656c101.624 0 184-82.38 184-184v-656c0-101.624-82.376-184-184-184h-656c-101.62 0-184 82.376-184 184v656zM624 408c-26.51 0-48-21.49-48-48v-96c0-26.51 21.49-48 48-48h96c26.51 0 48 21.49 48 48v96c0 26.51-21.49 48-48 48h-96z" />
<glyph unicode="&#xe91a;" glyph-name="cart-1" d="M785.203 189.976c-6.336-0.279-12.809-0.377-19.414-0.293h-357.419c59.037-11.38 103.63-63.324 103.63-125.683 0-70.692-57.308-128-128-128s-128 57.308-128 128c0 67.162 51.726 122.242 117.513 127.577-78.215 10.144-126.477 60.692-134.082 143.239l-74.16 359.486c-0.384 1.861-0.655 3.715-0.819 5.556-16.61 108.112-56.311 158.004-120.196 164.379-26.379 2.632-45.629 26.151-42.996 52.529s26.151 45.629 52.529 42.996c103.911-10.37 170.341-83.353 198.46-207.763h621.672c111.788 0 165.928-68.94 142.534-179.427-16.472-89.8-32.323-170.103-47.561-240.929-17.539-81.522-74.137-128.935-159.548-139.652 70.072-0.722 126.653-57.75 126.653-127.993 0-70.692-57.308-128-128-128s-128 57.308-128 128c0 62.912 45.387 115.223 105.203 125.976zM271.194 656l62.83-304.561c0.403-1.956 0.684-3.934 0.841-5.925 3.47-44.001 21.259-59.831 69.088-59.831 132.796 0 132.796 0 362.442-0.004 67.615-0.853 98.684 19.847 108.648 66.158 15.057 69.985 30.763 149.567 47.112 238.726l0.28 1.409c11.127 51.878 1.629 64.028-48.513 64.028h-602.728z" />
<glyph unicode="&#xe91b;" glyph-name="cart-s" d="M785.203 189.976c-6.336-0.279-12.809-0.377-19.414-0.293h-357.419c59.037-11.38 103.63-63.324 103.63-125.683 0-70.692-57.308-128-128-128s-128 57.308-128 128c0 67.162 51.726 122.242 117.513 127.577-78.215 10.144-126.477 60.692-134.082 143.239l-74.16 359.486c-0.384 1.861-0.655 3.715-0.819 5.556-16.61 108.112-56.311 158.004-120.196 164.379-26.379 2.632-45.629 26.151-42.996 52.529s26.151 45.629 52.529 42.996c103.911-10.37 170.341-83.353 198.46-207.763h621.672c111.788 0 165.928-68.94 142.534-179.427-16.472-89.8-32.323-170.103-47.561-240.929-17.539-81.522-74.137-128.935-159.548-139.652 70.072-0.722 126.653-57.75 126.653-127.993 0-70.692-57.308-128-128-128s-128 57.308-128 128c0 62.912 45.387 115.223 105.203 125.976zM271.194 656l62.83-304.561c0.403-1.956 0.684-3.934 0.841-5.925 3.47-44.001 21.259-59.831 69.088-59.831 132.796 0 132.796 0 362.442-0.004 67.615-0.853 98.684 19.847 108.648 66.158 15.057 69.985 30.763 149.567 47.112 238.726l0.28 1.409c11.127 51.878 1.629 64.028-48.513 64.028h-602.728z" />
<glyph unicode="&#xe91c;" glyph-name="cart" d="M452.667-64c-64.433 0-116.667 50.144-116.667 112s52.233 112 116.667 112c64.433 0 116.667-50.144 116.667-112s-52.233-112-116.667-112zM819.333-64c-64.433 0-116.667 50.144-116.667 112s52.233 112 116.667 112c64.433 0 116.667-50.144 116.667-112s-52.233-112-116.667-112zM456.833 8c20.711 0 37.5 16.118 37.5 36s-16.789 36-37.5 36c-20.711 0-37.5-16.118-37.5-36s16.789-36 37.5-36zM823.5 8c20.711 0 37.5 16.118 37.5 36s-16.789 36-37.5 36c-20.711 0-37.5-16.118-37.5-36s16.789-36 37.5-36zM222.871 854.551l661.622-0.003c95.68 0.509 142.945-55.69 124.369-146.889-13.419-65.882-22.326-118.827-26.743-158.781-8.876-77.193-59.771-122.552-141.871-127.468-60.522-3.624-231.703-17.718-512.755-42.227 3.554-15.151 7.2-30.658 10.936-46.521 9.35-28.005 27.653-39.708 64.202-39.45 54.861 0.387 236.526 0.387 545.331 0.001 22.618-0.028 51.451-8.94 51.451-46.886s-28.832-44.583-51.451-44.555c-308.462 0.385-490.116 0.385-544.626 0.001-72.266-0.509-137.597 45.456-157.772 108.788-0.299 0.939-106.273 460.171-115.029 516.884-5.863 37.975-15.091 39.753-30.365 41.491h-50.36c-35.155 5.559-49.812 29.169-49.812 50.965s27.194 39.987 49.812 39.987l65.201 0.111c1.026 0 2.051-0.037 3.074-0.111 56.143-4.073 91.165-42.724 104.784-105.338zM307.114 466.433c284.098 24.692 462.422 37.043 524.272 40.746 42.864 2.566 60.815 13.682 65.23 52.074 4.689 42.42 11.064 80.447 24.906 148.405 8.685 42.64-14.366 56.452-58.114 56.22h-623.19c13.697-65.348 36.021-164.63 66.896-297.445z" />
<glyph unicode="&#xe91d;" glyph-name="cash-register" d="M184 368v160h-64c-66.274 0-120 53.726-120 120v192c0 66.274 53.726 120 120 120h216c66.274 0 120-53.726 120-120v-192c0-66.274-53.726-120-120-120h-56v-160h264v287.989c0 32.299 31.167 55.368 61.921 45.832l148.355-45.999 125.761 45.315c31.148 11.223 63.964-11.94 63.964-45.148v-289.477c0-1.699-0.088-3.377-0.26-5.031 46.705-16.22 80.26-60.902 80.26-113.481v-192c0-66.274-53.309-120-119.070-120h-785.86c-65.76 0-119.070 53.726-119.070 120v192c0 66.274 53.309 120 119.070 120h64.93zM848.387 368v219.793l-76.819-27.68c-9.75-3.513-20.373-3.753-30.271-0.684l-101.683 31.528v-222.957h208.773zM120 864c-13.255 0-24-10.745-24-24v-192c0-13.255 10.745-24 24-24h216c13.255 0 24 10.745 24 24v192c0 13.255-10.745 24-24 24h-216zM224 104c-26.51 0-48 21.49-48 48s21.49 48 48 48c26.51 0 48-21.49 48-48s-21.49-48-48-48zM384 104c-26.51 0-48 21.49-48 48s21.49 48 48 48h416c26.51 0 48-21.49 48-48s-21.49-48-48-48h-416zM119.070 272c-13.152 0-23.814-10.745-23.814-24v-192c0-13.255 10.662-24 23.814-24h785.86c13.152 0 23.814 10.745 23.814 24v192c0 13.255-10.662 24-23.814 24h-785.86z" />
<glyph unicode="&#xe91e;" glyph-name="category-r" d="M376 448c0-83.947-68.053-152-152-152s-152 68.053-152 152c0 83.947 68.053 152 152 152s152-68.053 152-152zM296 448c0 39.765-32.235 72-72 72s-72-32.235-72-72c0-39.765 32.235-72 72-72s72 32.235 72 72zM952 88c0-83.947-68.056-152-152-152-83.947 0-152 68.053-152 152s68.053 152 152 152c83.944 0 152-68.053 152-152zM872 88c0 39.765-32.232 72-72 72-39.765 0-72-32.235-72-72s32.235-72 72-72c39.768 0 72 32.235 72 72zM952 448c0-83.947-68.056-152-152-152-83.947 0-152 68.053-152 152s68.053 152 152 152c83.944 0 152-68.053 152-152zM872 448c0 39.765-32.232 72-72 72-39.765 0-72-32.235-72-72s32.235-72 72-72c39.768 0 72 32.235 72 72zM952 808c0-83.947-68.056-152-152-152-83.947 0-152 68.053-152 152 0 83.944 68.053 152 152 152 83.944 0 152-68.056 152-152zM872 808c0 39.768-32.232 72-72 72-39.765 0-72-32.232-72-72s32.235-72 72-72c39.768 0 72 32.232 72 72zM698.716 136v-96h-122.716c-70.279 0-128 56.131-128 126.298v579.406c0 70.168 57.721 126.296 128 126.296h121.979v-96h-121.979c-18.306 0-32-14.192-32-30.296v-579.406c0-16.104 13.694-30.298 32-30.298h122.716zM344 400v96h336v-96z" />
<glyph unicode="&#xe91f;" glyph-name="category" d="M512 584c-83.947 0-152 68.053-152 152s68.053 152 152 152c83.947 0 152-68.053 152-152s-68.053-152-152-152zM512 664c39.765 0 72 32.235 72 72s-32.235 72-72 72c-39.765 0-72-32.235-72-72s32.235-72 72-72zM152 8c-83.947 0-152 68.056-152 152 0 83.947 68.053 152 152 152s152-68.053 152-152c0-83.944-68.053-152-152-152zM152 88c39.765 0 72 32.232 72 72 0 39.765-32.235 72-72 72s-72-32.235-72-72c0-39.768 32.235-72 72-72zM512 8c-83.947 0-152 68.056-152 152 0 83.947 68.053 152 152 152s152-68.053 152-152c0-83.944-68.053-152-152-152zM512 88c39.765 0 72 32.232 72 72 0 39.765-32.235 72-72 72s-72-32.235-72-72c0-39.768 32.235-72 72-72zM872 8c-83.947 0-152 68.056-152 152 0 83.947 68.053 152 152 152 83.944 0 152-68.053 152-152 0-83.944-68.056-152-152-152zM872 88c39.768 0 72 32.232 72 72 0 39.765-32.232 72-72 72s-72-32.235-72-72c0-39.768 32.232-72 72-72zM200 261.284h-96v122.716c0 70.279 56.131 128 126.298 128h579.406c70.168 0 126.296-57.721 126.296-128v-121.979h-96v121.979c0 18.306-14.192 32-30.296 32h-579.406c-16.104 0-30.298-13.694-30.298-32v-122.716zM464 616h96v-336h-96v336z" />
<glyph unicode="&#xe920;" glyph-name="check" d="M356.135 248.052l582.784 539.181c19.459 18.003 49.828 16.823 67.831-2.636s16.823-49.828-2.636-67.831l-615.258-569.226c-18.347-16.974-46.65-17.028-65.061-0.123l-308.258 283.037c-19.527 17.929-20.822 48.294-2.893 67.821s48.294 20.822 67.821 2.893l275.67-253.116z" />
<glyph unicode="&#xe921;" glyph-name="checked-o" d="M0 720c0 132.548 107.452 240 240 240h544c132.552 0 240-107.452 240-240v-544c0-132.552-107.448-240-240-240h-544c-132.548 0-240 107.448-240 240v544z" />
<glyph unicode="&#xe922;" glyph-name="checked" d="M0 720c0 132.548 107.452 240 240 240h544c132.552 0 240-107.452 240-240v-544c0-132.552-107.448-240-240-240h-544c-132.548 0-240 107.448-240 240v544zM240 864c-79.529 0-144-64.471-144-144v-544c0-79.528 64.471-144 144-144h544c79.528 0 144 64.472 144 144v544c0 79.529-64.472 144-144 144h-544z" />
<glyph unicode="&#xe923;" glyph-name="chevron-down" d="M512.86 366.556l280.177 271.408c22.211 21.519 57.667 20.955 79.187-1.259s20.952-57.666-1.264-79.186l-319.746-309.742c-21.958-21.271-56.92-21.001-78.546 0.609l-320.25 320c-21.878 21.861-21.892 57.318-0.031 79.196s57.318 21.892 79.196 0.031l281.278-281.058z" />
<glyph unicode="&#xe924;" glyph-name="chevron-left" d="M430.557 447.14l271.407-280.177c21.519-22.211 20.955-57.667-1.259-79.187s-57.666-20.952-79.186 1.264l-309.742 319.746c-21.271 21.958-21.001 56.92 0.609 78.546l320 320.25c21.861 21.878 57.318 21.892 79.196 0.031s21.892-57.318 0.031-79.196l-281.057-281.278z" />
<glyph unicode="&#xe925;" glyph-name="chevron-right" d="M593.444 448.86l-271.408 280.177c-21.519 22.214-20.955 57.666 1.259 79.186s57.666 20.955 79.186-1.259l309.742-319.749c21.271-21.958 21.001-56.92-0.609-78.546l-320-320.252c-21.861-21.88-57.318-21.888-79.196-0.032-21.878 21.864-21.892 57.32-0.031 79.198l281.058 281.278z" />
<glyph unicode="&#xe926;" glyph-name="chevron-ud" d="M281.018 527.914c-19.289-18.186-49.668-17.29-67.853 1.998s-17.291 49.667 1.998 67.853l263.91 248.812c18.706 17.637 47.988 17.402 66.41-0.532l255.582-248.812c18.992-18.492 19.4-48.882 0.912-67.876-18.492-18.995-48.882-19.403-67.877-0.911l-222.631 216.735-230.45-217.267zM742.565 370.926c19.289 18.185 49.668 17.29 67.851-1.998s17.296-49.667-2-67.853l-263.906-248.81c-18.706-17.64-47.988-17.408-66.41 0.528l-255.582 248.814c-18.995 18.492-19.402 48.881-0.91 67.876s48.881 19.403 67.876 0.911l222.631-216.738 230.45 217.27z" />
<glyph unicode="&#xe927;" glyph-name="chevron-up" d="M512.86 529.444l280.177-271.408c22.211-21.519 57.667-20.955 79.187 1.259s20.952 57.666-1.264 79.186l-319.746 309.742c-21.958 21.271-56.92 21.001-78.546-0.609l-320.25-320c-21.878-21.861-21.892-57.318-0.031-79.196s57.318-21.892 79.196-0.031l281.278 281.058z" />
<glyph unicode="&#xe928;" glyph-name="circle-arrow-line-donw" d="M1024 448c0-282.77-229.23-512-512-512s-512 229.23-512 512c0 282.77 229.23 512 512 512s512-229.23 512-512zM928 448c0 229.75-186.25 416-416 416s-416-186.25-416-416c0-229.75 186.25-416 416-416s416 186.25 416 416zM512 184c26.51 0 48 21.49 48 48v432c0 26.51-21.49 48-48 48s-48-21.49-48-48v-432c0-26.51 21.49-48 48-48zM507.73 176.001c13.006-0.073 25.486 5.135 34.582 14.433l180 184c18.538 18.95 18.204 49.34-0.746 67.878s-49.34 18.204-67.878-0.746l-145.3-148.53-141.701 148.142c-18.325 19.158-48.709 19.833-67.866 1.509s-19.833-48.709-1.508-67.866l176-184c8.99-9.399 21.41-14.748 34.417-14.821z" />
<glyph unicode="&#xe929;" glyph-name="circle-arrow-line-left" d="M512-64c-282.77 0-512 229.23-512 512s229.23 512 512 512c282.77 0 512-229.23 512-512s-229.23-512-512-512zM512 32c229.75 0 416 186.25 416 416s-186.25 416-416 416c-229.75 0-416-186.25-416-416s186.25-416 416-416zM248 448c0-26.51 21.49-48 48-48h432c26.51 0 48 21.49 48 48s-21.49 48-48 48h-432c-26.51 0-48-21.49-48-48zM240.001 452.27c-0.073-13.006 5.135-25.486 14.433-34.582l184-180c18.95-18.538 49.34-18.204 67.878 0.746s18.204 49.34-0.746 67.878l-148.53 145.3 148.142 141.701c19.158 18.325 19.833 48.709 1.509 67.866s-48.709 19.833-67.866 1.508l-184-176c-9.399-8.99-14.748-21.41-14.821-34.417z" />
<glyph unicode="&#xe92a;" glyph-name="circle-arrow-line-right" d="M512-64c282.77 0 512 229.23 512 512s-229.23 512-512 512c-282.77 0-512-229.23-512-512s229.23-512 512-512zM512 32c-229.75 0-416 186.25-416 416s186.25 416 416 416c229.75 0 416-186.25 416-416s-186.25-416-416-416zM776 448c0-26.51-21.49-48-48-48h-432c-26.51 0-48 21.49-48 48s21.49 48 48 48h432c26.51 0 48-21.49 48-48zM783.999 452.27c0.073-13.006-5.135-25.486-14.433-34.582l-184-180c-18.95-18.538-49.34-18.204-67.878 0.746s-18.204 49.34 0.746 67.878l148.53 145.3-148.142 141.701c-19.158 18.325-19.833 48.709-1.509 67.866s48.709 19.833 67.866 1.508l184-176c9.399-8.99 14.748-21.41 14.821-34.417z" />
<glyph unicode="&#xe92b;" glyph-name="circle-arrow-line-up" d="M1024 448c0 282.77-229.23 512-512 512s-512-229.23-512-512c0-282.77 229.23-512 512-512s512 229.23 512 512zM928 448c0-229.75-186.25-416-416-416s-416 186.25-416 416c0 229.75 186.25 416 416 416s416-186.25 416-416zM512 712c26.51 0 48-21.49 48-48v-432c0-26.51-21.49-48-48-48s-48 21.49-48 48v432c0 26.51 21.49 48 48 48zM507.73 719.999c13.006 0.073 25.486-5.135 34.582-14.433l180-184c18.538-18.95 18.204-49.34-0.746-67.878s-49.34-18.204-67.878 0.746l-145.3 148.53-141.701-148.142c-18.325-19.158-48.709-19.833-67.866-1.509s-19.833 48.709-1.508 67.866l176 184c8.99 9.399 21.41 14.748 34.417 14.821z" />
<glyph unicode="&#xe92c;" glyph-name="circle-checkmark" d="M512 16.63c238.239 0 431.37 193.131 431.37 431.37s-193.131 431.37-431.37 431.37c-238.239 0-431.37-193.131-431.37-431.37s193.131-431.37 431.37-431.37zM512-64c-282.77 0-512 229.23-512 512s229.23 512 512 512c282.77 0 512-229.23 512-512s-229.23-512-512-512zM715.026 604.677l-290.511-265.631-111.946 104.359c-17.077 15.919-44.217 15.388-60.618-1.189s-15.852-42.918 1.224-58.838l141.357-131.78c16.476-15.358 42.466-15.474 59.094-0.276l320.193 292.774c17.235 15.759 18.046 42.095 1.81 58.825s-43.369 17.515-60.603 1.756z" />
<glyph unicode="&#xe92d;" glyph-name="circle-close" d="M512 380.118l-118.794-118.794c-18.745-18.745-49.137-18.745-67.882 0s-18.745 49.137 0 67.882l118.794 118.794-118.794 118.794c-18.745 18.745-18.745 49.137 0 67.882s49.137 18.745 67.882 0l118.794-118.794 118.794 118.794c18.745 18.745 49.137 18.745 67.882 0s18.745-49.137 0-67.882l-118.794-118.794 118.794-118.794c18.745-18.745 18.745-49.137 0-67.882s-49.137-18.745-67.882 0l-118.794 118.794zM1024 448c0-282.77-229.23-512-512-512s-512 229.23-512 512c0 282.77 229.23 512 512 512s512-229.23 512-512zM928 448c0 229.75-186.25 416-416 416s-416-186.25-416-416c0-229.75 186.25-416 416-416s416 186.25 416 416z" />
<glyph unicode="&#xe92e;" glyph-name="circle-doble" d="M512-64c-282.77 0-512 229.23-512 512s229.23 512 512 512c282.77 0 512-229.23 512-512s-229.23-512-512-512zM512 148.992c165.138 0 299.008 133.87 299.008 299.008s-133.87 299.008-299.008 299.008c-165.138 0-299.008-133.87-299.008-299.008s133.87-299.008 299.008-299.008z" />
<glyph unicode="&#xe92f;" glyph-name="circle-minus" d="M248 448c0 26.51 21.49 48 48 48h432c26.51 0 48-21.49 48-48s-21.49-48-48-48h-432c-26.51 0-48 21.49-48 48zM1024 448c0-282.77-229.23-512-512-512s-512 229.23-512 512c0 282.77 229.23 512 512 512s512-229.23 512-512zM928 448c0 229.75-186.25 416-416 416s-416-186.25-416-416c0-229.75 186.25-416 416-416s416 186.25 416 416z" />
<glyph unicode="&#xe930;" glyph-name="circle-plus" d="M560 496h168c26.51 0 48-21.49 48-48s-21.49-48-48-48h-168v-168c0-26.51-21.49-48-48-48s-48 21.49-48 48v168h-168c-26.51 0-48 21.49-48 48s21.49 48 48 48h168v168c0 26.51 21.49 48 48 48s48-21.49 48-48v-168zM1024 448c0-282.77-229.23-512-512-512s-512 229.23-512 512c0 282.77 229.23 512 512 512s512-229.23 512-512zM928 448c0 229.75-186.25 416-416 416s-416-186.25-416-416c0-229.75 186.25-416 416-416s416 186.25 416 416z" />
<glyph unicode="&#xe931;" glyph-name="circle-point" d="M512 232c119.294 0 216 96.706 216 216s-96.706 216-216 216c-119.294 0-216-96.706-216-216s96.706-216 216-216zM1024 448c0 282.77-229.23 512-512 512s-512-229.23-512-512c0-282.77 229.23-512 512-512s512 229.23 512 512zM928 448c0-229.75-186.25-416-416-416s-416 186.25-416 416c0 229.75 186.25 416 416 416s416-186.25 416-416z" />
<glyph unicode="&#xe932;" glyph-name="circle" d="M1024 448c0 282.77-229.23 512-512 512s-512-229.23-512-512c0-282.77 229.23-512 512-512s512 229.23 512 512zM928 448c0-229.75-186.25-416-416-416s-416 186.25-416 416c0 229.75 186.25 416 416 416s416-186.25 416-416z" />
<glyph unicode="&#xe933;" glyph-name="clip" d="M660.478 948.972c74.443 20.922 164.922 16.345 252.53-51.426 85.056-65.79 111.376-160.35 110.984-241.921-0.192-40.713-6.936-79.313-16.856-111.811-9.576-31.357-23.176-60.514-39.592-80.522l-341.886-432.764c-16.279-20.608-45.671-23.696-65.65-6.912-19.978 16.792-22.978 47.112-6.698 67.712l342.194 433.15c0.232 0.291 0.464 0.58 0.696 0.865 5.408 6.521 14.32 22.504 21.92 47.383 7.32 23.99 12.408 53.010 12.552 83.368 0.288 60.57-18.72 121.952-73.656 164.449-61.218 47.354-121.018 49.89-172.001 35.561-52.817-14.844-95.694-47.979-115.618-69.741l-411.827-472.841c-0.556-0.638-1.129-1.262-1.718-1.869-18.894-19.487-46.633-59.238-57.72-104.979-10.429-43.022-6.418-90.642 35.506-136.97 23.574-26.048 57.092-40.768 94.712-36.8 37.639 3.96 85.49 27.432 134.157 90.176 0.121 0.152 0.242 0.312 0.364 0.464l373.529 469.524c10.843 13.421 23.405 29.26 28.314 45.6 2.115 7.038 1.999 11.824 1.021 15.391-0.895 3.264-3.69 9.914-14.624 18.818-9.374 7.633-16.047 8.798-20.748 8.719-5.722-0.096-13.197-2.238-22.666-7.886-15.834-9.445-27.744-21.924-39.221-33.95-3.365-3.526-6.692-7.012-10.070-10.371l-344.554-415.262c-16.756-20.195-46.212-22.556-65.792-5.274s-21.87 47.663-5.114 67.858l346.082 417.105c1.078 1.299 2.222 2.538 3.429 3.712 0.846 0.824 2.242 2.313 4.12 4.317 10.418 11.113 35.679 38.060 64.397 55.19 18.15 10.826 41.28 20.361 67.878 20.805 27.619 0.461 54.982-8.971 80.085-29.413 23.544-19.17 39.448-42.099 46.6-68.163 7.064-25.761 4.336-50.052-1.68-70.085-10.728-35.699-34.336-64.69-44.168-76.771-0.536-0.659-1.032-1.268-1.488-1.825l-373.003-468.87c-60.169-77.472-129.044-118.376-197.367-125.568-68.413-7.208-130.164 20.192-172.418 66.88-66.955 73.992-74.61 156.72-57.819 225.995 15.953 65.816 53.649 119.842 81.338 148.73l411.4 472.35c0.223 0.257 0.45 0.511 0.678 0.762 29.626 32.579 87.145 76.783 159.47 97.11z" />
<glyph unicode="&#xe934;" glyph-name="clock" d="M330.553 681.318c-18.402 19.083-48.789 19.635-67.871 1.234s-19.635-48.789-1.234-67.871l216-224c15.67-16.25 40.546-19.386 59.758-7.531l188 116c22.56 13.92 29.565 43.494 15.644 66.054s-43.494 29.566-66.054 15.645l-155.087-95.692-189.155 196.161zM1024 448c0 282.77-229.23 512-512 512s-512-229.23-512-512c0-282.77 229.23-512 512-512s512 229.23 512 512zM928 448c0-229.75-186.25-416-416-416s-416 186.25-416 416c0 229.75 186.25 416 416 416s416-186.25 416-416z" />
<glyph unicode="&#xe935;" glyph-name="close" d="M512 540.588l397.712 397.715c27.504 27.501 70.528 29.069 96.096 3.501s24-68.588-3.504-96.089l-397.716-397.715 397.716-397.712c27.504-27.504 29.072-70.528 3.504-96.096-25.568-25.56-68.592-24-96.096 3.504l-397.712 397.716-397.715-397.716c-27.501-27.504-70.522-29.064-96.089-3.504-25.568 25.568-24 68.592 3.501 96.096l397.715 397.712-397.715 397.715c-27.501 27.501-29.069 70.522-3.501 96.089s68.588 24 96.089-3.501l397.715-397.715z" />
<glyph unicode="&#xe936;" glyph-name="code" d="M573.067 677.466c11.856 23.71 40.688 33.322 64.399 21.466s33.322-40.687 21.466-64.398l-208-416c-11.856-23.711-40.688-33.322-64.399-21.466s-33.322 40.688-21.466 64.399l208 416zM270.618 264.124c17.225-20.151 14.852-50.45-5.3-67.674s-50.45-14.852-67.675 5.3l-186.13 217.76c-15.471 18.1-15.334 44.806 0.321 62.747l186.13 213.302c17.43 19.974 47.751 22.037 67.726 4.607s22.037-47.751 4.607-67.726l-158.874-182.067 159.195-186.249zM755.514 264.124l159.198 186.249-158.878 182.067c-17.43 19.974-15.367 50.296 4.607 67.726s50.294 15.367 67.726-4.607l186.128-213.302c15.656-17.941 15.792-44.647 0.32-62.747l-186.128-217.76c-17.224-20.152-47.523-22.525-67.674-5.3s-22.525 47.523-5.3 67.674z" />
<glyph unicode="&#xe937;" glyph-name="coin" d="M512-64c-282.77 0-512 229.23-512 512s229.23 512 512 512c282.77 0 512-229.23 512-512s-229.23-512-512-512zM512 32c229.75 0 416 186.25 416 416s-186.25 416-416 416c-229.75 0-416-186.25-416-416s186.25-416 416-416zM452.973 685.532v58.468h88.649v-58.174c2.202-0.469 4.412-0.975 6.629-1.519 15.956-3.917 31.59-9.574 46.903-16.972s29.823-16.319 43.53-26.764l-37.265-75.723c-16.063 12.838-32.714 22.684-49.955 29.538s-33.892 10.281-49.955 10.281c-22.702 0-40.371-4.515-53.007-13.545s-18.954-21.705-18.954-38.025v-0.326c0-14.144 3.48-25.241 10.441-33.292s15.634-13.926 26.022-17.625c10.387-3.699 24.576-7.507 42.566-11.424 0.214 0 0.428-0.054 0.643-0.163s0.428-0.163 0.643-0.163l6.425-1.306c27.2-6.093 49.848-13.328 67.945-21.705s33.25-21.868 45.457-40.472c12.208-18.604 18.311-44.008 18.311-76.212v-0.653c0-30.246-6.479-56.139-19.436-77.681s-31.804-37.97-56.541-49.285c-9.413-4.306-19.547-7.792-30.402-10.459v-60.331h-88.649v55.611c-11.655 1.38-23.479 3.557-35.472 6.53-22.381 5.549-42.352 12.838-59.914 21.868s-30.091 18.55-37.587 28.559l40.799 73.764c16.491-15.014 35.284-26.601 56.38-34.761s42.994-12.24 65.696-12.24c24.63 0 43.744 4.95 57.344 14.851s20.4 23.881 20.4 41.941v0.326c0 12.62-3.052 22.63-9.156 30.028s-13.974 12.838-23.612 16.32c-9.638 3.482-21.952 6.637-36.944 9.465-0.428 0.218-0.91 0.326-1.446 0.326s-1.017 0.109-1.446 0.326c-0.643 0.218-1.339 0.381-2.088 0.49s-1.446 0.163-2.088 0.163c-30.198 5.657-54.667 12.076-73.406 19.257s-34.802 20.182-48.188 39.004c-13.386 18.822-20.078 45.64-20.078 80.455v0.326c0 30.681 6.264 56.901 18.793 78.66s30.68 38.351 54.452 49.775c11.39 5.473 23.91 9.635 37.561 12.486z" />
<glyph unicode="&#xe938;" glyph-name="column" d="M128 864c-17.673 0-32-14.327-32-32v-768c0-17.673 14.327-32 32-32h208c17.673 0 32 14.327 32 32v768c0 17.673-14.327 32-32 32h-208zM128 960h208c70.692 0 128-57.308 128-128v-768c0-70.692-57.308-128-128-128h-208c-70.692 0-128 57.308-128 128v768c0 70.692 57.308 128 128 128zM688 864c-17.673 0-32-14.327-32-32v-768c0-17.673 14.327-32 32-32h208c17.673 0 32 14.327 32 32v768c0 17.673-14.327 32-32 32h-208zM688 960h208c70.692 0 128-57.308 128-128v-768c0-70.692-57.308-128-128-128h-208c-70.692 0-128 57.308-128 128v768c0 70.692 57.308 128 128 128z" />
<glyph unicode="&#xe939;" glyph-name="comment" d="M332.929 79.776l0.049 0.056c-0.015-0.032-0.032-0.056-0.049-0.056zM1018.008 852.335c-17.032 56.995-64.672 99.208-122.008 107.441l-747.011 0.168c-82.138 0-148.99-69.735-148.99-155.428v-468.995c0-85.693 69.816-158.354 152-158.354h103.446v-195.151c0-18.832 11.099-35.832 27.89-42.8 5.805-2.176 10.964-3.216 16.168-3.216 12.354 0 24.142 5.408 32.59 14.896l195.906 226.271h344c78.536 0 146.96 68.528 151.952 150.103l0.048 487.037c-0.712 12.787-1.112 17.161-2.272 23.059-0.952 4.962-2.184 9.945-3.72 14.969zM926.752 792v-437.302c-3.168-49.137-44.464-82.088-94.752-82.088h-312c-14.951-0.774-21.739-4.389-31.825-14.866l-155.198-177.911c1.35 2.672-0.049 97.335-0.049 97.335-1.798 13.139 0 66.234 0 66.234 0 21.268-21.171 29.208-21.171 29.208h-136.209c-52.625 0-79.549 35.126-79.549 88.094v417.946c0 52.967 26.562 85.351 79.187 85.351h688.813c36.136-5.534 62.752-20 62.752-72z" />
<glyph unicode="&#xe93a;" glyph-name="conf" d="M379.102-56.332c-46.674 12.058-91.527 30.625-133.263 55.248-12.11 7.144-16.372 22.639-9.668 35.007 8.264 15.233 12.63 32.443 12.63 49.922 0 57.542-46.621 104.332-103.949 104.332-17.36 0-34.563-4.382-49.739-12.676-12.318-6.73-27.754-2.452-34.875 9.703-24.532 41.942-43.035 86.909-55.041 133.755-3.378 13.25 4.002 26.866 16.892 31.195 42.307 14.294 70.79 54.045 70.79 98.856s-28.43 84.562-70.79 98.856c-12.89 4.382-20.27 17.945-16.892 31.195 12.006 46.846 30.509 91.866 55.041 133.756 7.12 12.155 22.557 16.432 34.875 9.703 15.125-8.295 32.328-12.677 49.739-12.677 57.328 0 103.949 46.794 103.949 104.334 0 17.424-4.366 34.691-12.63 49.924-6.704 12.363-2.443 27.857 9.668 35.004 41.787 24.623 86.589 43.194 133.263 55.245 13.201 3.391 26.767-4.017 31.080-16.954 14.241-42.464 53.846-71.051 98.492-71.051s84.251 28.535 98.491 71.051c4.366 12.937 17.931 20.345 31.081 16.954 46.673-12.051 91.527-30.622 133.262-55.245 12.11-7.147 16.372-22.64 9.668-35.004-8.264-15.233-12.63-32.448-12.63-49.924 0-57.54 46.621-104.334 103.949-104.334 17.36 0 34.562 4.382 49.739 12.677 12.32 6.729 27.759 2.451 34.88-9.703 24.528-41.942 43.032-86.91 55.034-133.756 3.382-13.25-4.001-26.865-16.892-31.195-42.302-14.294-70.783-54.045-70.783-98.856s28.426-84.563 70.783-98.856c12.891-4.382 20.274-17.945 16.892-31.195-12.002-46.846-30.506-91.866-55.034-133.755-7.12-12.155-22.56-16.433-34.88-9.703-15.177 8.294-32.323 12.676-49.739 12.676-57.328 0-103.949-46.79-103.949-104.332 0-17.424 4.366-34.689 12.63-49.922 6.704-12.367 2.443-27.862-9.668-35.007-41.787-24.624-86.589-43.191-133.262-55.248-13.202-3.39-26.767 4.025-31.081 16.956-14.241 42.468-53.846 71.053-98.491 71.053s-84.251-28.537-98.492-71.053c-3.636-10.788-13.706-17.773-24.61-17.789-2.123 0.008-4.297 0.262-6.47 0.833zM508.725 128.964c51.33 0 97.56-28.712 120.926-73.236 23.684 7.359 46.731 16.868 68.775 28.434-4.919 14.352-7.47 29.529-7.47 44.802 0 75.609 61.305 137.141 136.642 137.141 15.209 0 30.331-2.56 44.635-7.497l28.331 69.030c-44.365 23.406-72.966 69.807-72.966 121.373s28.601 97.921 72.966 121.373c-7.335 23.772-16.813 46.904-28.331 69.030-14.304-4.937-29.426-7.497-44.635-7.497-75.337 0-136.642 61.533-136.642 137.145 0 15.269 2.55 30.446 7.47 44.8-22.045 11.566-45.046 21.121-68.775 28.435-23.32-44.527-69.549-73.235-120.926-73.235s-97.561 28.709-120.926 73.235c-23.684-7.314-46.731-16.869-68.775-28.435 4.919-14.354 7.47-29.532 7.47-44.8 0-75.612-61.305-137.145-136.639-137.145-15.213 0-30.334 2.561-44.636 7.497-11.523-22.126-21.042-45.212-28.33-69.030 44.362-23.406 72.966-69.807 72.966-121.373s-28.604-97.921-72.966-121.373c7.288-23.772 16.807-46.904 28.33-69.030 14.302 4.937 29.423 7.497 44.636 7.497 75.334 0 136.639-61.532 136.639-137.141 0-15.273-2.55-30.45-7.47-44.802 22.045-11.566 45.046-21.123 68.775-28.434 23.32 44.524 69.549 73.236 120.926 73.236zM512 253.519c-107.224 0-194.481 87.257-194.481 194.481s87.257 194.481 194.481 194.481c107.224 0 194.481-87.257 194.481-194.481s-87.257-194.481-194.481-194.481zM512 556.045c-59.586 0-108.045-48.458-108.045-108.045s48.458-108.045 108.045-108.045c59.586 0 108.045 48.458 108.045 108.045s-48.458 108.045-108.045 108.045z" />
<glyph unicode="&#xe93b;" glyph-name="contact" horiz-adv-x="864" d="M0 776c0 101.62 82.38 184 184 184h496c101.62 0 184-82.38 184-184v-656c0-101.624-82.379-184-184-184h-496c-101.62 0-184 82.376-184 184v656zM184 864c-48.601 0-88-39.399-88-88v-656c0-48.6 39.399-88 88-88h496c48.601 0 88 39.4 88 88v656c0 48.601-39.399 88-88 88h-496zM168 296c0 17.673 14.327 32 32 32h456c17.673 0 32-14.327 32-32s-14.327-32-32-32h-456c-17.673 0-32 14.327-32 32zM264 192c-17.673 0-32-14.327-32-32s14.327-32 32-32h336c17.673 0 32 14.328 32 32s-14.327 32-32 32h-336zM511.965 610.605c0.897 0.79 1.504 1.654 1.858 2.57 16.584 19.333 26.134 44.429 26.134 71.099 0 59.262-46.823 107.726-105.13 107.726s-105.131-48.463-105.131-107.726c0-28.997 11.288-56.144 30.659-76.050 3.766-6.312 0.845-10.447-2.895-11.508-54.394-15.426-82.26-40.038-91.981-100.013-8.734-53.882 21.674-87.643 79.463-91.654l85.796-4.734c1.709-0.266 3.469-0.368 5.262-0.289 1.794-0.079 3.554 0.022 5.262 0.289l85.796 4.734c57.79 4.011 88.197 37.772 79.463 91.654-9.721 59.975-37.586 84.586-91.981 100.013-4.367 1.238-9.817 7.505-2.576 13.888zM456.418 612.876c0.154 9.068 1.965 17.18 7.797 22.694 12.807 12.109 23.177 29.866 23.177 48.705 0 30.882-23.779 55.495-52.565 55.495s-52.566-24.613-52.566-55.495c0-18.57 9.894-34.062 22.807-45.746 5.017-4.538 9.122-12.508 9.798-20.67 0.492-1.882 0.771-3.833 0.81-5.823 0.645-32.879-14.45-57.222-43.788-65.542-36.566-10.371-48.483-20.896-54.512-58.094-3.578-22.074 2.912-29.28 30.855-31.222l88.064-4.986 87.475 4.986c27.943 1.942 34.434 9.148 30.855 31.222-6.029 37.198-17.946 47.722-54.512 58.094-28.854 8.183-43.986 31.95-43.806 64.112 0.004 0.766 0.042 1.523 0.11 2.271z" />
<glyph unicode="&#xe93c;" glyph-name="content" d="M406.439 544l217.983 248.568c13.325 15.194 35.091 19.722 53.362 11.1l250.216-157.928v74.259c0 79.529-64.472 144-144 144h-544c-79.529 0-144-64.471-144-144v-176h310.439zM526.982 544h394.264l-251.241 163.090-143.023-163.090zM928 448h-832v-272c0-79.528 64.471-144 144-144h544c79.528 0 144 64.472 144 144v272zM249.297 280c-27.226 0-49.297 21.49-49.297 48s22.071 48 49.297 48h509.405c27.226 0 49.297-21.49 49.297-48s-22.071-48-49.297-48h-509.405zM249.297 120c-27.226 0-49.297 21.49-49.297 48s22.071 48 49.297 48h509.405c27.226 0 49.297-21.49 49.297-48s-22.071-48-49.297-48h-509.405zM0 720c0 132.548 107.452 240 240 240h544c132.552 0 240-107.452 240-240v-544c0-132.552-107.448-240-240-240h-544c-132.548 0-240 107.448-240 240v544zM288 632c-35.346 0-64 28.654-64 64s28.654 64 64 64c35.346 0 64-28.654 64-64s-28.654-64-64-64z" />
<glyph unicode="&#xe93d;" glyph-name="copy" d="M437.942 720h436.115c82.81 0 149.942-71.51 149.942-159.721v-464.558c0-88.211-67.132-159.721-149.942-159.721h-436.115c-82.81 0-149.942 71.51-149.942 159.721v464.558c0 88.211 67.132 159.721 149.942 159.721zM458.716 624c-41.264 0-74.716-35.876-74.716-80.13v-431.74c0-44.254 33.452-80.13 74.716-80.13h402.568c41.264 0 74.716 35.876 74.716 80.13v431.74c0 44.254-33.452 80.13-74.716 80.13h-402.568zM736 680h-88v103.87c0 44.254-33.452 80.13-74.716 80.13h-402.568c-41.264 0-74.716-35.876-74.716-80.13v-431.74c0-44.254 33.452-80.13 74.716-80.13h165.284v-96h-186.058c-82.81 0-149.942 71.51-149.942 159.721v464.558c0 88.211 67.132 159.721 149.942 159.721h436.115c82.81 0 149.942-71.51 149.942-159.721v-120.279z" />
<glyph unicode="&#xe93e;" glyph-name="credential" d="M0 736c0 70.693 57.308 128 128 128h768c70.696 0 128-57.307 128-128v-584c0-70.696-57.304-128-128-128h-768c-70.692 0-128 57.304-128 128v584zM128 768c-17.673 0-32-14.327-32-32v-584c0-17.672 14.327-32 32-32h768c17.672 0 32 14.328 32 32v584c0 17.673-14.328 32-32 32h-768zM584 652c0 19.882 16.118 36 36 36h192c19.88 0 36-16.118 36-36s-16.12-36-36-36h-192c-19.882 0-36 16.118-36 36zM584 236c0 19.882 16.118 36 36 36h200c19.88 0 36-16.118 36-36s-16.12-36-36-36h-200c-19.882 0-36 16.118-36 36zM584 508c0 19.882 16.118 36 36 36h136c19.882 0 36-16.118 36-36s-16.118-36-36-36h-136c-19.882 0-36 16.118-36 36zM584 372c0 19.882 16.118 36 36 36h136c19.882 0 36-16.118 36-36s-16.118-36-36-36h-136c-19.882 0-36 16.118-36 36zM408 548c0-37.555-30.445-68-68-68s-68 30.445-68 68c0 37.555 30.445 68 68 68s68-30.445 68-68zM433.75 444.022c28.4 25.622 46.25 62.715 46.25 103.978 0 77.32-62.68 140-140 140s-140-62.68-140-140c0-42.792 19.199-81.1 49.453-106.78-19.375-11.69-36.834-26.813-51.812-44.644-18.58-22.118-33.058-48.057-42.854-76.209-11.855-34.074-2.090-66.75 18.408-89.466 19.842-21.99 49.561-34.902 80.764-34.902h180.082c31.202 0 60.922 12.912 80.764 34.901 20.498 22.716 30.263 55.392 18.408 89.466-9.796 28.153-24.274 54.091-42.854 76.21-16.205 19.291-35.313 35.412-56.61 47.446zM295.63 384.488c15.585 7.685 31.998 11.512 48.37 11.512s32.785-3.827 48.37-11.512c15.615-7.7 30.246-19.207 42.859-34.222 12.62-15.025 22.892-33.182 29.982-53.56 2.293-6.59 1-12.183-3.86-17.57-5.517-6.114-15.458-11.137-27.31-11.137h-180.082c-11.853 0-21.794 5.024-27.31 11.137-4.86 5.386-6.153 10.979-3.86 17.57 7.090 20.378 17.362 38.535 29.982 53.56 12.613 15.014 27.244 26.522 42.859 34.222z" />
<glyph unicode="&#xe93f;" glyph-name="credit-card" d="M0 728v-552c0-75.112 60.889-136 136-136h752c75.112 0 136 60.888 136 136v552c0 75.11-60.888 136-136 136h-752c-75.111 0-136-60.89-136-136zM96 712c0 40 16 56 56 56h724c36 0 52-24 52-56v-520c0-36-16-56-56-56h-720c-40 0-56 20-56 56v520zM0 608h1024v-96h-1024v96zM832 324c0-55.229-44.771-100-100-100s-100 44.771-100 100c0 55.229 44.771 100 100 100s100-44.771 100-100zM200 312c0 26.51 21.49 48 48 48h224c26.51 0 48-21.49 48-48s-21.49-48-48-48h-224c-26.51 0-48 21.49-48 48z" />
<glyph unicode="&#xe940;" glyph-name="crm" d="M299.564 911.137c36.818 32.331 83.056 48.863 126.605 48.863h24.3c48.709 0 103.165-21.686 136.539-56.652 34.695 33.735 82.843 56.652 127.161 56.652h48.53c63.719 0 120.287-40.703 139.458-100.866l117.265-368c8.948-28.080 8.948-58.188 0-86.268l-117.265-368c-19.171-60.163-75.738-100.866-139.458-100.866h-48.53c-45.528 0-94.534 21.652-129.221 54.537-33.525-33.724-86.759-54.537-134.479-54.537h-14.462c-49.866 0-96.182 23.329-129.258 57.705-26.65-35.59-68.995-57.705-115.291-57.705h-47.458c-79.529 0-144 64.471-144 144v736c0 79.529 64.471 144 144 144h47.458c42.332 0 81.359-18.49 108.106-48.863zM342.669 814.775l100.943-323.935c8.694-27.899 8.694-57.783 0-85.682l-91.165-292.557c0.108-1.315 0.163-2.645 0.163-3.987 0-33.527 41.124-76.614 83.398-76.614h14.462c13.629 0 32.318 4.935 47.95 13.158 14.17 7.454 22.678 15.861 24.269 20.855l117.265 368c2.906 9.119 2.906 18.856 0 27.974l-117.265 368c-1.591 4.994-10.099 13.401-24.269 20.855-15.632 8.223-34.321 13.158-47.95 13.158h-24.3c-29.243 0-63.542-16.856-83.5-49.225zM633.948 797.025l97.474-305.891c8.948-28.080 8.948-58.188 0-86.268l-98.194-308.151c0.7-3.263 1.069-6.648 1.069-10.12 0-20.088 45.699-54.595 79.872-54.595h48.53c22.214 0 41.595 13.946 47.989 34.013l117.265 368c2.906 9.119 2.906 18.856 0 27.974l-117.265 368c-6.395 20.067-25.775 34.013-47.989 34.013h-48.53c-32.179 0-79.872-39.121-79.872-61.162 0-1.968-0.118-3.908-0.349-5.814zM96 816v-736c0-26.51 21.49-48 48-48h47.458c21.009 0 39.576 13.662 45.827 33.72l114.674 368c2.898 9.3 2.898 19.261 0 28.561l-114.674 368c-6.25 20.057-24.818 33.72-45.827 33.72h-47.458c-26.51 0-48-21.49-48-48z" />
<glyph unicode="&#xe941;" glyph-name="dashboard" d="M425.629 855.694c26.576 5.442 54.118 8.306 82.371 8.306 227.15 0 412-185.857 412-416s-184.85-416-412-416c-227.15 0-412 185.857-412 416 0 52.388 9.568 102.403 26.988 148.438 9.382 24.794-3.111 52.499-27.905 61.882s-52.499-3.111-61.881-27.905c-21.469-56.734-33.202-118.252-33.202-182.414 0-282.377 227.049-512 508-512s508 229.623 508 512c0 282.377-227.049 512-508 512-34.76 0-68.753-3.526-101.629-10.257-25.97-5.318-42.714-30.682-37.395-56.653s30.682-42.714 56.653-37.396zM243.428 739.718c-4.048 7.203-3.785 12.102-2.846 15.524 1.154 4.208 4.369 9.395 10.356 13.797 12.113 8.905 28.051 9.966 41.374-0.937l290.56-237.772 4.203-2.232c32.648-17.337 52.925-49.908 52.925-85.702 0-51.284-45.558-98.395-108.826-98.395-49.83 0-89.634 29.887-103.401 67.639-1.792 4.914-4.348 9.436-7.523 13.429l-176.822 314.65zM159.738 692.686l181.13-322.316c5.659-13.48 12.822-26.153 21.274-37.856l5.424-9.651 1.237 0.956c37.872-46.67 97.174-75.819 162.372-75.819 109.957 0 204.826 83.976 204.826 194.395 0 71.57-39.73 134.374-99.444 168.050l-283.447 231.95c-52.017 42.566-116.826 35.019-159.033 3.99-42.779-31.449-68.642-92.658-34.338-153.7z" />
<glyph unicode="&#xe942;" glyph-name="delivery-bike" d="M524.668 182.212c-13.936-47.472-42.864-80.324-88.386-96.803-6.165-2.246-12.618-3.634-18.95-5.409-10.966 0-21.934 0-32.903 0-18.062 6.028-35.42 13.403-49.006 27.851-2.186 2.758-4.373 5.516-6.556 8.25-3.239 5.793-6.455 11.586-9.692 17.379-1.361 3.91-2.742 7.8-4.103 11.711-1.010 7.374-2.021 14.728-3.010 22.103-0.021 4.274-0.041 8.572-0.062 12.846 0.722 14.022 4.969 27.186 8.927 40.461 3.587 6.987 7.175 13.977 10.763 20.988 10.742 15.645 23.647 29.090 38.451 40.589 7.504 4.191 15.008 8.378 22.512 12.548 12.785 4.187 25.65 8.098 39.092 9.274 3.442-0.021 6.886-0.042 10.328-0.062 8.906-1.498 17.815-2.993 26.741-4.488 10.802-5.475 21.504-11.16 30.904-19.068 4.763-5.793 9.527-11.583 14.29-17.355 0.701-2.651 1.709-5.087 3.876-6.842 2.37-6.88 4.72-13.763 7.090-20.646 0.621-2.865 1.218-5.727 1.836-8.593 0.968-9.918 1.939-19.836 0.33-29.775-0.888-4.98-1.692-9.98-2.474-14.96zM476.032 167.421c3.649 5.855 6.162 12.119 6.823 19.109 3.772 12.375 3.919 24.622-1.092 36.696-0.497 2.246-0.147 4.852-2.537 6.243-2.143 7.118-6.432 12.569-12.267 16.801-2.123 3.118-4.99 5.129-8.495 6.198-6.783 4.893-14.247 7.267-22.532 6.731-4.146 1.862-8.288 1.796-12.414-0.062-33.15-1.346-66.448-35.779-68.18-70.534-2.063-4.253-1.959-8.593-0.537-13.019 0.187-9.832 2.477-18.957 8.535-26.802 0.661-2.523 2.166-4.402 4.186-5.876 4.847-6.8 10.909-11.821 18.97-13.894 1.936-2.82 5.174-2.246 7.811-3.229 10.515-2.415 20.97-3.142 31.278 0.941 6.205 0.128 11.606 2.544 16.513 6.326 15.238 7.267 26.104 19.217 33.938 34.37zM800 177.946c2.058 13.699 4.572 27.295 8.795 40.502 3.419 7.031 6.817 14.063 10.239 21.115 11.823 17.44 26.097 32.357 42.846 44.731 6.817 3.613 13.657 7.246 20.474 10.858 12.794 4.038 25.564 8.035 39.034 8.848 3.442-0.045 6.88-0.066 10.322-0.107 8.878-1.602 17.756-3.183 26.634-4.789 1.317-2.391 3.852-1.924 5.85-2.692 6.9-4.253 13.781-8.526 20.681-12.779 1.381-1.284 2.782-2.543 4.162-3.827 4.716-5.9 9.432-11.775 14.151-17.675 0.143-1.453 0.307-2.886 1.958-3.398 2.945-7.758 5.91-15.495 8.855-23.253-0.43-3.097 0.103-5.983 1.958-8.526 0.020-10.644 0.020-21.288 0.040-31.931-1.811-4.059-2.511-8.336-2.201-12.779-10.135-32.807-27.461-60.312-55.373-79.804-15.035-10.495-31.063-18.699-49.52-20.516-0.677-0.066-1.254-1.263-1.874-1.924-11.636 0-23.296 0-34.936 0-17.219 6.626-34.379 13.377-47.522 27.592-1.874 2.201-3.769 4.381-5.643 6.581-3.585 6.346-7.171 12.696-10.752 19.063-1.134 2.907-2.288 5.792-3.422 8.699-1.524 8.464-3.068 16.928-4.592 25.391-0.060 3.505-0.123 7.073-0.163 10.62zM913.231 259.203c-34.792-1.54-67.296-35.478-69.664-72.728 0.020-3.571 0.040-7.139 0.060-10.689-0.41-9.509 2.348-17.973 7.684-25.644 1.217-3.592 3.092-6.647 6.263-8.741 4.756-6.478 10.856-10.879 18.517-12.869 1.464-2.412 3.895-1.879 6.077-2.156 11.083-3.633 22.105-3.699 33.065 0.512 25.46 4.723 51.044 31.201 55.493 57.406 4.633 11.135 4.036 22.547 1.544 34.025-0.927 2.969-0.844 6.346-3.378 8.654-2.245 8.633-7.354 15.111-14.294 20.173-1.794 2.159-3.689 4.17-6.51 4.876-6.84 4.637-14.151 7.651-22.515 6.986-4.079 1.862-8.198 2.052-12.34 0.194zM618.606 168.635c-10.161-0.040-20.342-0.083-30.504-0.103-1.143 0.166-2.283 0.309-3.406 0.472-3.776 6.713-7.571 13.425-11.344 20.135-0.816 2.28-1.387 4.702-3.551 6.178-2.857 8.703-6.977 16.792-11.549 24.671-0.386 2.22-0.856 4.413-2.775 5.912-1.857 6.61-5.262 12.501-8.569 18.453-0.753 2.32-1.427 4.679-3.571 6.178-2.61 7.636-6.693 14.429-11.711 20.69-0.694 2.502-1.837 4.679-4.142 6.075-3.079 6.384-7.69 11.515-12.956 16.114-9.18 10.94-21.016 17.772-34.319 22.288-7.793 3.366-15.708 6.241-24.379 6.138-3.409 0.555-6.755 1.907-10.303 0.821-11.245 1.047-22.222 0.060-32.79-4.187l-0.899 0.183-0.611-0.718-0.162-0.020c-5.979-0.389-11.304-2.668-16.322-5.829-20.587-7.676-37.339-21.324-54.13-34.976-6.755-5.5-12.366-12.538-20.629-16.090 0.020 3.306 0.041 6.59 0.061 9.893 2.51 12.993 5.040 25.963 7.549 38.957 1.959 5.46 3.898 10.92 5.857 16.38 1.487 2.894 3 5.789 5.038 9.727-11.038 1.090-21.137 0.864-31.257 0.206-3.407 0.040-6.815 0.063-10.222 0.103-10.161-0.040-20.322-0.063-30.503-0.103-3.407 0.040-6.815 0.063-10.222 0.103-10.161-0.040-20.321-0.063-30.503-0.103-3.407 0.040-6.815 0.063-10.222 0.103-10.161-0.040-20.321-0.063-30.503-0.103-3.407 0.040-6.815 0.063-10.222 0.103-10.161-0.040-20.321-0.063-30.503-0.103-3.407 0.040-6.815 0.063-10.222 0.103-10.161-0.040-20.322-0.063-30.503-0.103-3.407 0.040-6.815 0.063-10.222 0.103-10.161-0.040-20.322-0.063-30.503-0.103-3.407 0.040-6.815 0.063-10.222 0.103-10.161-0.040-20.321-0.063-30.503-0.103-2.652 0.226-5.325 0.472-7.978 0.698-18.771 10.222-18.955 31.157-0.265 42.632 3.122 1.907 6.794 2.934 10.222 4.35 3.407-0.020 6.815-0.020 10.222-0.040 10.161 0.020 20.322 0.060 30.483 0.080 3.407-0.020 6.815-0.060 10.222-0.080 10.161 0.020 20.322 0.060 30.483 0.080 3.407-0.020 6.815-0.060 10.222-0.080 10.161 0.020 20.322 0.060 30.482 0.080 3.407-0.020 6.815-0.060 10.222-0.080 10.161 0.020 20.322 0.060 30.482 0.080 3.407-0.020 6.815-0.060 10.222-0.080 10.161 0.020 20.322 0.060 30.483 0.080 3.407-0.020 6.815-0.060 10.222-0.080 10.161 0.020 20.322 0.060 30.483 0.080 3.407-0.020 6.815-0.060 10.222-0.080 10.161 0.020 20.322 0.060 30.482 0.080 3.407-0.020 6.815-0.060 10.222-0.080 10.161 0.020 20.322 0.060 30.483 0.080 3.406-0.020 6.815-0.060 10.221-0.080 10.161 0.040 20.323 0.1 30.484 0.143 3.406-0.020 6.835-0.043 10.241-0.063 10.161 0.083 20.303 0.166 30.464 0.269 3.426-0.023 6.855-0.043 10.26-0.063 10.141 0.103 20.283 0.206 30.421 0.309 3.429-0.020 6.878-0.043 10.303-0.063 10.141-0.472 20.283-0.984 30.382 0.472 4.040-1.067 8.080-1.107 12.14-0.123 9.527-0.655 19.057-1.087 28.545 0.452 4.080-1.17 8.183-1.233 12.282-0.083 10.406-0.452 20.812-0.924 31.237-1.372l0.367-0.289-0.244 0.266c8.549-2.113 17.118-4.207 25.668-6.321 3.386-1.396 6.752-2.811 10.141-4.207 4.612-3.592 9.732-6.65 12.527-12.109 0.571-4.988-0.327-9.75-2.388-14.306-4.754-4.702-9.507-9.401-14.261-14.1-9.629-5.523-19.117-11.269-28.912-16.503-13.65-7.288-13.752-7.121-7.651-22.64 0.611-7.882 2.877-15.353 5.692-22.68 0.429-2.791-0.284-5.889 2.306-8.045 0.776-8.497 3.019-16.625 6.204-24.508-0.244-2.994 0.122-5.829 2.243-8.188 0.796-8.497 3.165-16.582 6.121-24.528-0.182-8.703 5.979-5.028 10.141-5.254 36.196-0.143 72.411-0.246 108.606-0.452 3.773-0.020 5.956 1.15 7.753 4.865 9.345 19.5 19.077 38.814 28.667 58.168 5.447 8.743 10.914 17.506 16.362 26.252 23.382 31.586 51.844 58.104 82.225 82.692 2.98 2.403 5.589 4.782 4.754 9.238-1.447 7.613-2.653 15.29-3.977 22.946-0.307 3.489-0.634 6.959-0.938 10.448-1.206 8.763-2.388 17.526-3.591 26.272 0.469 2.974-0.307 5.663-1.817 8.208 0.509 9.155-1.612 17.96-3.346 26.826-0.367 3.346-0.714 6.671-1.080 10.016-2.511 21.182-2.53 21.202 17.832 28.796 5.57 2.073 10.772 5.378 16.976 5.439 0.059-1.478 0.020-3.017 1.711-3.756 1.797-10.509 7.284-16.482 18.608-15.291 3.469-0.329 6.937-0.677 10.406-1.006 6.673-2.052 13.346-4.125 20.035-6.178 2.818-2.032 5.613-4.084 8.427-6.116 4.123-4.7 6.082-10.468 8.143-16.215-0.552-4.105-1.084-8.19-1.632-12.294-3.614-11.574-12.018-18.307-22.731-22.72-21.281-3.961-22.282-5.008-19.464-20.464 1.467-9.318 2.428-18.945 13.161-22.886 1.916-0.841 3.855-1.701 5.771-2.545 8.285-2.423 16.59-4.842 24.871-7.264 1.308-2.3 3.839-1.848 5.817-2.585 6.243-3.14 12.487-6.281 18.75-9.421 2.692-1.911 5.408-3.838 8.1-5.749 4.612-4.29 9.223-8.58 13.855-12.867 2.101-2.771 4.222-5.563 6.323-8.334 2.511-4.782 4.655-9.79 7.571-14.286 5.755-8.826 3.449-14.798-5.613-19.068-1.447-0.675-2.672-1.888-3.997-2.851-4.040-0.864-8.080-1.725-12.1-2.585-7.264 0.286-13.181 4.596-19.873 6.606-2.243 2.466-5.18 3.675-8.325 4.456-7.588 4.616-15.668 7.653-24.667 7.736-2.326 2.462-5.285 2.010-8.202 1.745-9.345 2.811-18.872 2.609-28.462 1.828-4.265 0.801-8.305-0.083-12.242-1.685-17.729-1.313-33.153-8.743-46.988-19.231-30.319-23.009-48.58-54.801-62.841-89.325-3.776-6.34-6.633-13.053-8.222-20.278-1.655-3.592-3.938-7.018-4.836-10.797-2.98-12.744-9.16-20.769-23.649-18.041-3.406 0.043-6.792 0.083-10.201 0.103-10.161-0.040-20.342-0.083-30.504-0.103-3.406 0.043-6.792 0.083-10.201 0.103-10.161-0.040-20.342-0.083-30.504-0.103-3.406 0.043-6.792 0.083-10.201 0.103-10.161-0.040-20.342-0.083-30.5-0.103-3.327 0.043-6.736 0.083-10.122 0.103zM86.612 446.893c-3.328 21.018 7.962 34.831 29.399 36.053 2.573 0.145 5.472-0.911 7.615 1.553 3.144-2.713 6.615-1.781 10.086-0.973 10.249-0.497 20.518-2.071 30.645 0.973 3.164-2.713 6.676-1.781 10.167-0.973 10.229-0.476 20.478-2.092 30.583 0.994 3.144-2.775 6.656-1.781 10.147-0.994 10.228-0.476 20.477-2.092 30.583 0.994 3.144-2.775 6.656-1.781 10.147-0.994 11.025-0.166 22.11 0.352 33.054-0.663 9.881-0.911 12.515 3.459 11.454 12.218l0.163 0.228-0.041-0.31c0.613 1.967 1.429 3.893 1.817 5.902 3.757 19.404 3.736 19.404 22.682 20.626 2.736-0.021 5.473-0.062 8.187-0.083 10.168 0.020 20.335 0.062 30.503 0.083 3.408-0.021 6.819-0.062 10.227-0.083 10.842 0.020 21.704 0.062 32.543 0.083 2.737-0.021 5.471-0.062 8.188-0.083 10.168 0.041 20.335 0.062 30.5 0.104 17.172 0.89 26.91 11.327 26.748 28.619-1.329 12.695-6.657 17.292-18.663 16.091-3.203 2.609-6.697 1.657-10.188 0.891-9.45 0.994-18.884 1.201-28.315-0.166-4.125 1.118-8.27 1.284-12.415 0.166-10.145 0.746-20.273 1.698-30.358-0.642-3.348 1.947-6.859 1.615-10.392 0.642-10.125 0.746-20.273 1.698-30.338-0.621-3.368 1.905-6.86 1.615-10.391 0.621-10.126 0.746-20.273 1.698-30.338-0.621-3.369 1.905-6.86 1.615-10.392 0.621-10.147 0.746-20.273 1.698-30.359-0.642-3.348 1.947-6.86 1.615-10.392 0.642-10.188 0.642-20.375 1.822-30.481-0.766-3.287 2.195-6.758 1.698-10.269 0.766-10.126 0.994-20.233 1.139-30.359-0.166-3.451 1.077-6.901 1.305-10.372 0.166-10.126 0.994-20.253 1.139-30.359-0.166-3.45 1.077-6.901 1.305-10.371 0.166-10.126 0.994-20.232 1.139-30.338-0.166-3.45 1.077-6.901 1.305-10.392 0.166-8.738 0.704-17.456 1.387-26.194 2.092-2.123 1.781-4.246 3.583-6.39 5.364-3.654 6.503-5.206 13.274-2.756 20.605 3.144 8.594 9.616 14.061 17.068 18.596 10.739 2.713 21.804 0.456 32.625 2.195 3.369-0.973 6.758-1.139 10.147-0.166 10.208-0.828 20.396-1.035 30.583 0.166 3.369-0.973 6.758-1.139 10.147-0.166 10.208-0.828 20.396-1.035 30.583 0.166 3.369-0.973 6.757-1.139 10.147-0.166 10.208-0.828 20.396-1.035 30.583 0.166 3.369-0.973 6.758-1.139 10.147-0.166 10.208-0.828 20.396-1.035 30.583 0.166 3.369-0.973 6.758-1.139 10.147-0.166 10.208-0.828 20.396-1.035 30.583 0.166 3.369-0.973 6.758-1.139 10.147-0.166 10.208-0.828 20.396-1.035 30.583 0.166 3.368-0.973 6.756-1.139 10.148-0.166 10.207-0.828 20.395-1.035 30.582 0.166 3.368-0.973 6.756-1.139 10.148-0.166 10.207-0.828 20.395-1.035 30.582 0.166 3.368-0.973 6.756-1.139 10.148-0.166 10.207-0.828 20.395-1.035 30.582 0.166 3.368-0.973 6.756-1.139 10.145-0.166 10.211-0.828 20.398-1.035 30.586 0.166 3.368-0.973 6.756-1.139 10.145-0.166 10.211-0.849 20.398-1.015 30.586 0.145 2.714-0.663 5.431-1.305 8.145-1.967 5.001-3.148 9.064-7.248 12.045-12.425 0.307-3.438 0.592-6.855 0.899-10.292-2.122-11.949-4.248-23.898-6.39-35.847-0.694-4.556-1.411-9.112-2.106-13.647-2.529-12.301-5.368-24.54-6.347-37.11-1.656-3.976-2.737-8.035-2.003-12.405-3.53-12.156-5.51-24.623-6.819-37.195-0.978-4.801-1.96-9.606-2.939-14.411-2.244-18.783-12.577-29.697-31.032-32.681-4.125 1.036-8.27 1.244-12.435 0.148-9.431 0.952-18.884 1.137-28.315-0.148-4.125 1.036-8.27 1.244-12.435 0.148-9.431 0.952-18.884 1.137-28.315-0.148-4.125 1.036-8.27 1.244-12.435 0.148-9.431 0.952-18.884 1.137-28.315-0.148-4.125 1.036-8.27 1.244-12.435 0.148-9.431 0.952-18.884 1.137-28.318-0.148-4.122 1.036-8.267 1.244-12.432 0.148-8.636 1.489-17.619-0.5-26.071 2.689-2.144 1.66-4.308 3.316-6.451 4.972-2.674 4.285-5.063 8.821-4.655 13.998 0.551 6.957-3.45 5.757-7.513 4.845-3.369 0.976-6.758 1.14-10.147 0.168-10.208 0.828-20.396 1.036-30.583-0.168-3.369 0.976-6.758 1.14-10.147 0.168-10.208 0.828-20.396 1.036-30.583-0.168-3.369 0.976-6.758 1.14-10.147 0.168-10.208 0.828-20.396 1.036-30.583-0.168-3.369 0.976-6.758 1.14-10.147 0.168-10.208 0.828-20.396 1.036-30.583-0.168-3.369 0.976-6.758 1.14-10.147 0.188-6.452 0.892-13.005 1.492-18.334 5.921-1.347 2.012-2.797 4.060-4.226 6.132zM761.9 591.925c3.821-6.375 8.425-12.055 14.009-16.831 1.121-1.304 2.262-2.63 3.383-3.934 3.422-7.574 8.707-9.152 16.012-6.101 6.886 2.882 14.391 4.018 20.895 8.058 5.545 0.652 10.448 3.345 15.512 5.491 13.251 4.586 26.099 10.645 40.212 12.034 2.622-0.211 5.263-0.421 7.884-0.652 5.846-2.798 11.569-5.722 14.569-12.244 0.541-2.819 1.082-5.617 1.624-8.436-4.303-15.105-16.293-22.027-28.141-29.074-5.684-1.199-10.869-3.724-15.872-6.669-15.992-6.185-32.004-12.37-47.996-18.555-4.926-0.337-9.527-1.872-13.892-4.25-9.265-0.631-18.533-1.683-27.739 0.61-1.5 0.652-3.004 1.304-4.504 1.978-5.723 4.775-11.449 9.53-17.152 14.306-2.103 2.146-4.203 4.292-6.326 6.438-4.683 4.776-9.365 9.551-14.051 14.327-5.444 7.637-9.566 4.944-12.628-2.083-1.442-3.324-2.022-7.048-2.981-10.603-4.125-14.664-8.228-29.327-12.35-43.969-2.343-4.607-3.662-9.509-3.983-14.705-5.846-14.116-5.846-14.136 7.165-19.293 2.123-0.841 4.342-1.407 6.526-2.102 1.199-2.125 3.302-1.809 5.182-2.085 7.246-4.333 14.952-7.511 22.898-10.075 1.18-1.979 3.101-2.292 5.104-2.483 6.105-3.45 12.188-6.901 18.293-10.351 2.842-2.020 5.684-4.060 8.549-6.080 5.243-5.113 10.467-10.222 15.71-15.335 1.442-2.527 2.881-5.031 4.323-7.555 2.022-6.877 4.025-13.737 3.642-21.077-1.16-4.881-2.32-9.782-3.461-14.664-5.366-16.074-10.729-32.127-16.112-48.201-2.861-5.259-4.864-10.832-5.904-16.786-6.646-17.463-13.312-34.923-19.955-52.387-2.803-5.28-5.104-10.77-6.287-16.724-8.143-13.672-19.132-22.699-35.043-23.772-17.975-1.219-26.841 9.994-22.019 28.128 1.682 6.312 3.885 12.494 5.846 18.724 2.583 5.3 4.802 10.706 5.425 16.704 6.504 14.895 11.608 30.335 15.992 46.051 3.241 5.828 5.162 12.16 6.345 18.765 1.88 4.735 3.72 9.469 5.664 14.18 3.38 8.205 1.4 14.749-5.444 19.841-2.042 3.028-5.065 3.975-8.328 4.459-6.245 3.556-12.768 6.438-19.735 8.079-3.121 2.272-6.484 3.91-10.308 4.397-6.364 3.597-12.969 6.584-20.072 8.182-2.242 2.316-5.146 3.052-8.088 3.702-15.59 6.986-31.184 14.013-47.354 19.398-3.422 1.536-6.825 3.093-10.247 4.629-4.326 3.195-9.67 5.365-10.691 11.843 0.12 4.207 0.24 8.417 0.363 12.623 4.883 14.452 9.184 29.074 12.369 44.053 2.502 4.481 3.762 9.32 4.041 14.474 5.745 15.021 9.566 30.652 13.451 46.283 2.22 4.628 3.623 9.509 3.963 14.705 5.444 14.327 9.206 29.221 12.868 44.116 1.303 4.755 2.622 9.53 3.924 14.285 5.204 19.397 15.791 33.303 35.286 38.163 3.341 0.042 6.685 0.084 10.007 0.126 7.965-1.494 15.95-3.008 23.918-4.502 2.68-1.305 5.344-2.609 8.024-3.913 5.885-3.934 11.77-7.889 17.635-11.823 1.241-1.094 2.482-2.188 3.743-3.282 4.164-5.533 8.325-11.066 12.47-16.599 1.999-2.819 4.002-5.638 6.024-8.457 3.762-6.627 8.325-12.602 13.49-18.092 0.859-2.377 2.2-4.229 4.323-5.407zM783.509 784.671c4.492-5.372 8.961-10.744 13.453-16.136 1.145-2.748 3.114-4.793 5.578-6.363 1.125-1.674 2.191-3.409 3.403-5.021 1.454-1.921 2.809-3.574 1.577-6.405-1.474-3.409-4.16-3.45-6.766-2.81-9.349 2.314-11.769-2.397-14.681-10.723-9.721-27.768-30.554-43.243-58.79-49.214-3.423 0.021-6.849 0.021-10.252 0.041-7.752 1.219-15.093 3.884-22.373 6.715-2.009 1.426-3.997 2.851-6.006 4.277-4.183 5.31-8.366 10.62-12.55 15.929-1.169 3.161-2.317 6.322-3.486 9.483-0.206 8.512-0.412 17.004-0.614 25.516 1.454 4.772 2.932 9.545 4.386 14.297 9.206 16.673 21.019 30.888 39.023 38.222 23.293 9.504 44.886 7.355 63.382-11.322 1.6-2.149 3.157-4.318 4.718-6.487z" />
<glyph unicode="&#xe943;" glyph-name="doc-header" d="M88 792c0 92.784 74.506 168 166.415 168h507.17c91.911 0 166.415-75.216 166.415-168v-688c0-92.784-74.504-168-166.415-168h-507.17c-91.909 0-166.415 75.216-166.415 168v688zM254.415 864c-39.39 0-71.321-32.235-71.321-72v-688c0-39.768 31.931-72 71.321-72h507.17c39.391 0 71.319 32.232 71.319 72v688c0 39.765-31.928 72-71.319 72h-507.17zM278.189 500c0 26.51 21.287 48 47.547 48h388.302c26.26 0 47.547-21.49 47.547-48s-21.287-48-47.547-48h-388.302c-26.26 0-47.547 21.49-47.547 48zM270.264 336c0 26.51 21.288 48 47.547 48h388.302c26.259 0 47.546-21.49 47.546-48s-21.287-48-47.546-48h-388.302c-26.259 0-47.547 21.49-47.547 48zM270.264 168c0 26.51 21.288 48 47.547 48h388.302c26.259 0 47.546-21.49 47.546-48 0-26.512-21.287-48-47.546-48h-388.302c-26.259 0-47.547 21.488-47.547 48zM832.904 728h-649.81v-96h649.81v96z" />
<glyph unicode="&#xe944;" d="M0 960h1024v-1024h-1024v1024z" />
<glyph unicode="&#xe945;" d="M168 960h680c53.019 0 96-42.981 96-96v-832c0-53.019-42.981-96-96-96h-680c-53.019 0-96 42.981-96 96v832c0 53.019 42.981 96 96 96zM256 840c-30.928 0-56-25.072-56-56s25.072-56 56-56h504c30.928 0 56 25.072 56 56s-25.072 56-56 56h-504zM244 576c-24.301 0-44-19.699-44-44s19.699-44 44-44h320c24.301 0 44 19.699 44 44s-19.699 44-44 44h-320zM244 384c-24.301 0-44-19.699-44-44s19.699-44 44-44h320c24.301 0 44 19.699 44 44s-19.699 44-44 44h-320zM720 144c-30.928 0-56-25.072-56-56s25.072-56 56-56h48c30.928 0 56 25.072 56 56s-25.072 56-56 56h-48z" />
<glyph unicode="&#xe946;" glyph-name="doc" d="M0 720c0 132.548 107.452 240 240 240h544c132.552 0 240-107.452 240-240v-544c0-132.552-107.448-240-240-240h-544c-132.548 0-240 107.448-240 240v544zM240 864c-79.529 0-144-64.471-144-144v-544c0-79.528 64.471-144 144-144h544c79.528 0 144 64.472 144 144v544c0 79.529-64.472 144-144 144h-544zM264 668c-26.51 0-48 21.49-48 48s21.49 48 48 48h496c26.51 0 48-21.49 48-48s-21.49-48-48-48h-496zM264 484c-26.51 0-48 21.49-48 48s21.49 48 48 48h496c26.51 0 48-21.49 48-48s-21.49-48-48-48h-496zM264 308c-26.51 0-48 21.49-48 48s21.49 48 48 48h496c26.51 0 48-21.49 48-48s-21.49-48-48-48h-496zM264 124c-26.51 0-48 21.49-48 48s21.49 48 48 48h496c26.51 0 48-21.49 48-48s-21.49-48-48-48h-496z" />
<glyph unicode="&#xe947;" glyph-name="donwload" d="M462.797 96.017v423.827c0 26.51 21.49 48 48 48s48-21.49 48-48v-424.432l72.654 68.668c19.266 18.209 49.646 17.352 67.855-1.914s17.352-49.646-1.914-67.855l-153.625-145.195c-18.555-17.537-47.592-17.48-66.078 0.13l-152.422 145.195c-19.195 18.285-19.932 48.668-1.648 67.862s48.668 19.932 67.862 1.648l71.315-67.934zM787.44 316.082c97.171 20.958 140.526 71.131 140.526 160.187 0 61.546-22.246 105.366-60.468 135.934-14.791 11.829-31.475 21.126-48.422 27.649-12.61 4.853-24.207 7.636-29.615 7.976-25.244 1.589-44.871 21.685-44.871 45.942 0 34.967-15.451 78.333-43.074 111.118-33.801 40.116-82.939 63.030-149.556 63.030-99.331 0-159.357-35.89-189.929-111.002-7.983-19.614-28.826-31.537-50.619-28.955-52.432 6.212-87.977-2.586-110.814-24.272-23.356-22.178-33.999-56.973-29.985-107.925 1.147-14.562-4.978-28.782-16.508-38.324-44.996-37.235-62.828-77.335-56.987-124.555 7.918-64.015 53.843-106.249 96.525-106.249h143.047c26.519 0 48.017-20.613 48.017-46.041s-21.498-46.041-48.017-46.041h-143.047c-92.99 0-178.416 78.564-191.89 187.486-8.867 71.685 16.024 135.921 72.044 189.503-0.832 65.466 18.44 118.846 59.226 157.574 38.845 36.885 91.18 54.044 154.475 52.762 50.023 91.266 140.583 138.12 264.462 138.12 95.88 0 172.378-35.672 224.257-97.245 32.485-38.554 53.471-85.869 61.139-131.247 30.129-9.302 63.409-26.003 91.654-48.592 59.701-47.746 94.991-117.258 94.991-206.648 0-134.995-77.485-222.136-221.477-251.277-3.26-0.66-6.584-0.992-9.916-0.992h-106.046c-26.519 0-48.017 20.613-48.017 46.041s21.498 46.041 48.017 46.041h100.879z" />
<glyph unicode="&#xe948;" glyph-name="drag" d="M567.438 240h-207.438c-30.928 0-56 25.072-56 56v320c0 30.928 25.072 56 56 56h320c30.928 0 56-25.072 56-56v-271.929l268.866-124c4.226-1.949 7.394-5.642 8.678-10.115 2.438-8.494-2.471-17.355-10.965-19.793l-216.599-62.172-132.882-183.375c-2.372-3.273-5.895-5.527-9.86-6.309-8.67-1.71-17.084 3.933-18.793 12.602l-57.006 289.091zM548.508 336l-14.444 73.249c-0.652 3.307-0.243 6.735 1.168 9.796 3.701 8.024 13.206 11.529 21.23 7.828l83.538-38.527v187.654h-240v-240h148.508zM88 880h96v-96h-96v96zM840 880h96v-96h-96v96zM848 632h96v-96h-96v96zM336 880h96v-96h-96v96zM336 136h96v-96h-96v96zM88 632h96v-96h-96v96zM88 384h96v-96h-96v96zM88 136h96v-96h-96v96zM592 880h96v-96h-96v96z" />
<glyph unicode="&#xe949;" glyph-name="envelope-1" d="M0 920c0 22.091 17.909 40 40 40h128c22.091 0 40-17.909 40-40v-136c0-22.091-17.909-40-40-40h-128c-22.091 0-40 17.909-40 40v136zM0 512c0 22.091 17.909 40 40 40h128c22.091 0 40-17.909 40-40v-136c0-22.091-17.909-40-40-40h-128c-22.091 0-40 17.909-40 40v136zM0 112c0 22.088 17.909 40 40 40h128c22.091 0 40-17.912 40-40v-136c0-22.088-17.909-40-40-40h-128c-22.091 0-40 17.912-40 40v136zM408 920c0 22.091 17.909 40 40 40h128c22.091 0 40-17.909 40-40v-136c0-22.091-17.909-40-40-40h-128c-22.091 0-40 17.909-40 40v136zM408 512c0 22.091 17.909 40 40 40h128c22.091 0 40-17.909 40-40v-136c0-22.091-17.909-40-40-40h-128c-22.091 0-40 17.909-40 40v136zM408 112c0 22.088 17.909 40 40 40h128c22.091 0 40-17.912 40-40v-136c0-22.088-17.909-40-40-40h-128c-22.091 0-40 17.912-40 40v136zM816 920c0 22.091 17.912 40 40 40h128c22.088 0 40-17.909 40-40v-136c0-22.091-17.912-40-40-40h-128c-22.088 0-40 17.909-40 40v136zM816 512c0 22.091 17.912 40 40 40h128c22.088 0 40-17.909 40-40v-136c0-22.091-17.912-40-40-40h-128c-22.088 0-40 17.909-40 40v136zM816 112c0 22.088 17.912 40 40 40h128c22.088 0 40-17.912 40-40v-136c0-22.088-17.912-40-40-40h-128c-22.088 0-40 17.912-40 40v136z" />
<glyph unicode="&#xe94a;" glyph-name="envelope" d="M131.421 864h761.155c33.168 0 52.336-3.76 72.36-14.634 19.12-10.386 34.432-25.937 44.656-45.356 10.704-20.334 14.408-39.805 14.408-73.484v-565.051c0-33.682-3.704-53.146-14.408-73.482-10.224-19.424-25.536-34.968-44.656-45.36-20.024-10.872-39.192-14.632-72.36-14.632h-761.155c-33.162 0-52.332 3.76-72.353 14.632-19.12 10.392-34.432 25.936-44.658 45.36-10.707 20.336-14.409 39.8-14.409 73.482v565.051c0 33.679 3.702 53.15 14.409 73.484 10.226 19.419 25.538 34.97 44.658 45.356 20.021 10.874 39.192 14.634 72.353 14.634zM96.85 672.049v-509.738c0-17.623 14.248-31.927 31.87-31.999l760.623-3.072c0.056 0 0.112 0 0.16 0 22.096 0 40 17.912 40 40.003v504.806c-251.507-159.668-377.342-239.502-377.504-239.502-31.441-20.549-63.441-20.549-96 0l-359.15 239.502zM96.216 768l355.153-240.169c31.974-21.622 73.789-21.992 106.14-0.938l370.491 241.107h-831.784z" />
<glyph unicode="&#xe94b;" glyph-name="exit" d="M823.36 394.334h-526.949c-31.194 0-56.483 25.297-56.483 56.501s25.289 56.5 56.483 56.5h526.949l-99.612 100.466c-21.978 22.024-21.962 57.695 0.035 79.7 21.992 21.999 57.649 21.999 79.641 0l208.88-209.238c15.264-15.285 15.632-39.929 0.84-55.666l-209.72-223.096c-28.812-28.821-65.475-14.214-80.206-3.307-21.993 21.999-21.993 60.973 0 82.972l100.142 115.169zM119.964 864h407.89c13.251 0 23.993-10.745 23.993-24v-184c0 0 0-48 47.986-48s47.986 48 47.986 48v184c0 66.274-53.71 120-119.964 120h-407.89c-66.254 0-119.964-53.726-119.964-120v-784c0-66.272 53.71-120 119.964-120h407.89c66.254 0 119.964 53.728 119.964 120v188c0 0 0.001 52-47.986 52s-47.986-52-47.986-52v-188c0-13.256-10.742-24-23.993-24h-407.89c-13.25 0-23.993 10.744-23.993 24v784c0 13.255 10.742 24 23.993 24z" />
<glyph unicode="&#xe94c;" glyph-name="eye-close" d="M857.64 805.249l-466-759.113c-13.029-21.224-41.786-28.44-64.232-16.12s-30.078 39.512-17.050 60.736l39.052 63.616c-125.993 50.609-241.136 153.413-339.683 283.613-12.424 16.414-12.998 38.922-1.428 55.947 76.305 112.286 218.712 251.242 399.397 293.428 91.57 21.38 192.059 17.579 296.11-26.383 4.719-1.994 9.441-4.069 14.164-6.224l58.39 95.116c13.029 21.225 41.784 28.443 64.232 16.122s30.080-39.514 17.048-60.738zM400.556 237.682l54.060 88.063c-123.514 25.121-217.838 129.805-235.597 258.248-43.501-36.054-81.103-76.522-111.059-115.89 76.040-92.103 191.923-194.452 292.596-230.421zM510.027 416.010l157.259 256.174c-0.282 0.119-0.562 0.238-0.843 0.357-84.227 35.587-163.896 38.378-236.92 21.329-42.542-9.933-83.117-26.703-120.977-47.958 0-118.522 93.998-228.784 201.481-229.902zM918.384 611.795c31.984-31.598 63.848-67.594 95.504-108.3 12.856-16.526 13.512-39.477 1.632-56.714-134.024-194.386-279.766-298.31-428.809-321.678-12.958-2.032-21.673 12.024-14.78 23.184l48.973 79.286c1.998 3.235 5.076 5.636 8.676 6.861 92.178 31.363 188.964 105.010 286.3 237.839-20.152 24.33-40.16 46.362-59.976 66.266-13.592 13.65-16.456 34.884-6.176 51.175l9.112 14.452c13.176 20.888 41.976 24.986 59.544 7.629z" />
<glyph unicode="&#xe94d;" glyph-name="eye-open" d="M837.304 562.922c-32.019-133.589-151.355-240.193-302.122-242.825-161.072-2.812-296.761 114.117-324.468 269.886-37.379-32.358-72.865-71.611-106.529-117.864 123.017-165.661 258.048-250.976 406.029-259.859 145.452-8.731 278.845 75.384 401.699 259.153-23.738 34.337-48.597 64.825-74.609 91.508zM758.948 629.444c-74.006 50.798-156.131 75.797-246.948 75.797-76.528 0-147.554-17.759-213.384-53.73 0.371-2.274 0.584-4.604 0.625-6.977 2.251-128.948 107.143-231.681 234.284-229.462 119.452 2.085 216.045 96.072 225.423 214.372zM5.519 498.55c134.92 200.203 304.817 302.691 506.481 302.691 202.006 0 369.127-102.869 497.767-303.619l16.478-25.714-16.312-25.82c-144.479-228.693-313.549-341.175-505.47-329.655-188.206 11.297-354.731 122.086-498.483 327.797l-18.869 27.002 18.41 27.318z" />
<glyph unicode="&#xe94e;" glyph-name="facebook" d="M736 793.354v166.646h-132.606c-110.173 0-187.418-94.833-187.418-234.83v-103.836h-159.977v-169.188h159.977v-508.146h160.046v508.146h159.977v169.188h-159.977v136.294c0 27.81 26.274 35.726 40.062 35.726h119.914z" />
<glyph unicode="&#xe94f;" glyph-name="factory" d="M96 642.308v-609.305h832.334v830.997h-128.334v-362.872c0-17.523-6.391-34.445-17.974-47.594-26.286-29.838-71.782-32.717-101.62-6.432l-216.406 190.643v-145.869c0-16.696-5.802-32.873-16.414-45.763-25.274-30.699-70.649-35.097-101.348-9.823l-250.237 206.017zM704 554.255v333.745c0 39.765 32.235 72 72 72h176.334c39.765 0 72-32.235 72-72v-878.997c0-39.765-32.235-72-72-72h-880.334c-39.765 0-72 32.235-72 72v684.151c0 39.765 32.235 72 72 72 16.696 0 32.873-5.802 45.763-16.414l250.237-206.017v148.15c0 39.765 32.235 72 72 72 17.523 0 34.445-6.391 47.594-17.974l216.406-190.643zM240 296h80c17.673 0 32-14.327 32-32v-80c0-17.673-14.327-32-32-32h-80c-17.673 0-32 14.327-32 32v80c0 17.673 14.327 32 32 32zM488 296h80c17.673 0 32-14.327 32-32v-80c0-17.673-14.327-32-32-32h-80c-17.673 0-32 14.327-32 32v80c0 17.673 14.327 32 32 32zM720 296h80c17.673 0 32-14.327 32-32v-80c0-17.673-14.327-32-32-32h-80c-17.673 0-32 14.327-32 32v80c0 17.673 14.327 32 32 32z" />
<glyph unicode="&#xe950;" glyph-name="fields" d="M928 592h-373.461v-560h341.461c17.673 0 32 14.327 32 32v528zM928 688v144c0 17.673-14.327 32-32 32h-768c-17.673 0-32-14.327-32-32v-144h832zM96 592v-528c0-17.673 14.327-32 32-32h330.539v560h-362.539zM128 960h768c70.692 0 128-57.308 128-128v-768c0-70.692-57.308-128-128-128h-768c-70.692 0-128 57.308-128 128v768c0 70.692 57.308 128 128 128z" />
<glyph unicode="&#xe951;" glyph-name="filter" d="M96 864v-100.865l366.195-400.773v-300.782c6.471-27.599 18.737-37.071 48.118-37.071 28.888 0 39.404 8.581 44.187 35.822v301.609l369.244 416.773v85.288h-827.744zM366.195 325.107l-343.16 375.563c-14.818 16.218-23.035 37.392-23.035 59.36v111.97c0 48.601 39.399 88 88 88h835.744c53.019 0 96-42.981 96-96v-88.322c0-21.503-7.873-42.261-22.132-58.356l-347.111-391.792v-265.887c0-4.953-0.418-9.897-1.25-14.779-12.629-74.13-63.256-116.356-138.937-116.356-74.349 0-125.551 40.533-141.933 112.673-1.452 6.394-2.185 12.93-2.185 19.487v264.439z" />
<glyph unicode="&#xe952;" glyph-name="fixed-assets" d="M428 397.462v-419.383c0-22.091-17.909-40-40-40s-40 17.909-40 40v418.133l-27.851-21.092c-17.611-13.337-42.7-9.872-56.037 7.74s-9.872 42.7 7.74 56.037l96.386 72.992c14.926 11.303 35.696 10.741 49.988-1.354l86.255-72.992c16.864-14.271 18.966-39.51 4.695-56.373s-39.51-18.966-56.373-4.695l-24.801 20.988zM684 59.825l26.491 20.061c17.611 13.337 42.7 9.872 56.037-7.74s9.872-42.7-7.74-56.037l-96.386-72.992c-14.926-11.303-35.696-10.741-49.988 1.354l-86.255 72.992c-16.864 14.271-18.966 39.51-4.695 56.373s39.51 18.966 56.373 4.695l26.162-22.139v411.35c0 22.091 17.909 40 40 40s40-17.909 40-40v-407.917zM852.172 584.093l-340.457 266.915-331.715-260.061v-492.868c0-26.51-21.49-48-48-48s-48 21.49-48 48v417.606l-6.385-5.006c-20.863-16.356-51.034-12.703-67.39 8.16s-12.703 51.034 8.16 67.39l463.715 363.547c17.39 13.633 41.84 13.633 59.23 0l463.715-363.547c20.863-16.356 24.516-46.528 8.16-67.39-15.793-20.145-44.468-24.244-65.204-9.777v-426.983c0-26.51-21.49-48-48-48s-48 21.49-48 48v497.922c0 1.379 0.058 2.744 0.172 4.093z" />
<glyph unicode="&#xe953;" glyph-name="folder-open" d="M454.234 767.398l26.685-47.398h-384.918v16c0 35.346 28.654 64 64 64h238.465c23.113 0 44.43-12.462 55.769-32.602zM96 624v-464c0-35.344 28.654-64 64-64h704c35.344 0 64 28.656 64 64v398.379c0 35.346-28.656 65.621-64 65.621h-768zM600 720h264c88.368 0 160-73.255 160-161.621v-398.379c0-88.368-71.632-160-160-160h-704c-88.366 0-160 71.632-160 160v576c0 88.366 71.634 160 160 160h238.465c57.782 0 111.075-31.155 139.422-81.506l54.113-94.494h8z" />
<glyph unicode="&#xe954;" glyph-name="folder" d="M592 622.379h272c35.344 0 64-28.654 64-64v-398.379c0-35.344-28.656-64-64-64h-704c-35.346 0-64 28.656-64 64v576c0 35.346 28.654 64 64 64h238.465c23.113 0 44.43-12.462 55.769-32.602l54.113-96.115c17.009-30.21 48.984-48.903 83.654-48.903zM592 718.379l-54.113 96.115c-28.347 50.35-81.64 81.506-139.422 81.506h-238.465c-88.366 0-160-71.634-160-160v-576c0-88.368 71.634-160 160-160h704c88.368 0 160 71.632 160 160v398.379c0 88.366-71.632 160-160 160h-272z" />
<glyph unicode="&#xe955;" glyph-name="google" d="M219.237 547.374c-9.266-28.939-14.289-59.802-14.289-91.834 0.004-37.104 6.724-72.654 19.052-105.453l-3.567-13.318 8.733 7.231c43.042-116.198 153.852-198.912 283.761-198.912 54.876 0 106.347 14.744 150.712 40.554l-0.224 1.414c60.254 35.752 107.342 91.702 132.146 158.679h-275.56v206.265h494.992c5.92-31.54 9.008-64.113 9.008-97.402 0-37.328-3.88-73.739-11.272-108.862-25.080-119.518-90.632-223.879-181.44-297.735l-0.024 0.032-1.024 0.048c-87.073-70.16-197.345-112.080-317.314-112.080-194.093 0-362.842 109.736-448.926 271.235l10.961 9.077-14.734-0.312c-38.43 71.293-60.228 152.861-60.228 239.54 0 83.819 20.38 162.862 56.506 232.46h0.028l2.619-0.48c86.512 162.172 256.932 272.48 453.019 272.48 124.618 0 238.879-44.564 327.828-118.703l-166.384-136.749c-46.815 29.378-102.156 46.348-161.444 46.348-133.875 0-247.629-86.519-288.829-206.896l-4.106 3.374z" />
<glyph unicode="&#xe956;" glyph-name="graduation" d="M545.938 851.918l449.134-197.211c17.576-7.718 28.928-25.098 28.928-44.296v-262.948c0-26.718-21.656-48.378-48.376-48.378s-48.376 21.659-48.376 48.378v184.326l-79.56-40.171v-305.89c0-7.461-2.44-16.21-5.76-22.894-3.312-6.682-11.664-18.41-17.28-25.258-11.256-13.728-28.346-30.944-53.016-47.744-49.825-33.952-127.722-64.32-245.144-64.32-116.718 0-195.374 27.976-246.262 58.936-25.262 15.368-43.114 31.128-55.061 43.76-5.962 6.304-16.29 20.408-19.466 24.672-4.473 7.492-6.834 16.058-6.834 24.786v305.44l-171.712 83.831c-17.11 8.354-27.729 25.966-27.13 44.997s12.305 35.94 29.907 43.2l478.11 197.211c12.165 5.018 25.849 4.863 37.898-0.427zM295.622 439.649v-245.124c6.48-6.825 17.648-16.926 34.891-27.417 34.405-20.932 95.37-44.844 195.974-44.844 99.901 0 158.413 25.552 190.667 47.526 16.369 11.152 26.739 21.899 32.678 29.141 0.383 0.467 0.749 0.921 1.096 1.359v244.705l-203.76-96.352c-12.588-5.953-27.13-6.192-39.908-0.658l-211.638 91.664zM778.061 564.854l84.179 42.505-336.344 147.687-359.644-148.346 101.229-49.42 258.132-111.802 252.448 119.376z" />
<glyph unicode="&#xe957;" glyph-name="gril-compac" d="M348 744c-59.647 0-108 48.353-108 108s48.353 108 108 108c59.647 0 108-48.353 108-108s-48.353-108-108-108zM348 336c-59.647 0-108 48.353-108 108s48.353 108 108 108c59.647 0 108-48.353 108-108s-48.353-108-108-108zM348-64c-59.647 0-108 48.353-108 108s48.353 108 108 108c59.647 0 108-48.353 108-108s-48.353-108-108-108zM692 744c-59.647 0-108 48.353-108 108s48.353 108 108 108c59.647 0 108-48.353 108-108s-48.353-108-108-108zM692 336c-59.647 0-108 48.353-108 108s48.353 108 108 108c59.647 0 108-48.353 108-108s-48.353-108-108-108zM692-64c-59.647 0-108 48.353-108 108s48.353 108 108 108c59.647 0 108-48.353 108-108s-48.353-108-108-108z" />
<glyph unicode="&#xe958;" glyph-name="group" d="M516 776c-24.301 0-44 19.699-44 44s19.699 44 44 44c24.301 0 44-19.699 44-44s-19.699-44-44-44zM516 680c77.32 0 140 62.68 140 140s-62.68 140-140 140c-77.32 0-140-62.68-140-140s62.68-140 140-140zM252 32c-24.301 0-44 19.696-44 44s19.699 44 44 44c24.301 0 44-19.696 44-44s-19.699-44-44-44zM252-64c77.32 0 140 62.68 140 140s-62.68 140-140 140c-77.32 0-140-62.68-140-140s62.68-140 140-140zM780 32c-24.301 0-44 19.696-44 44s19.699 44 44 44c24.304 0 44-19.696 44-44s-19.696-44-44-44zM780-64c77.32 0 140 62.68 140 140s-62.68 140-140 140c-77.32 0-140-62.68-140-140s62.68-140 140-140zM884 496c-24.304 0-44 19.699-44 44s19.696 44 44 44c24.304 0 44-19.699 44-44s-19.696-44-44-44zM884 400c77.32 0 140 62.68 140 140s-62.68 140-140 140c-77.32 0-140-62.68-140-140s62.68-140 140-140zM140 496c-24.301 0-44 19.699-44 44s19.699 44 44 44c24.301 0 44-19.699 44-44s-19.699-44-44-44zM140 400c77.32 0 140 62.68 140 140s-62.68 140-140 140c-77.32 0-140-62.68-140-140s62.68-140 140-140zM516 344c-46.392 0-84 37.608-84 84s37.608 84 84 84c46.392 0 84-37.608 84-84s-37.608-84-84-84zM516 248c99.411 0 180 80.589 180 180s-80.589 180-180 180c-99.411 0-180-80.589-180-180s80.589-180 180-180zM376.737 419.689l-184.737 52.311 26.156 92.368 184.736-52.311-26.155-92.368zM648 419.689l184.736 52.311-26.152 92.368-184.739-52.311 26.155-92.368zM344 121.496l119.218 150.504-75.251 59.609-119.218-150.502 75.251-59.61zM679.218 121.496l-119.218 150.504 75.251 59.609 119.218-150.502-75.251-59.61zM560 568v192h-96v-192h96z" />
<glyph unicode="&#xe959;" glyph-name="hashtag" d="M431.71 870.317l-19.794-191.43 255.781-1.323 21.030 203.384c2.975 28.77 29.021 49.713 58.175 46.777s50.377-28.639 47.402-57.408l-19.988-193.305 196.895-1.019c29.308-0.152 52.939-23.718 52.788-52.637s-24.037-52.239-53.337-52.088l-207.171 1.072-25.965-251.11 194.993-1.009c29.299-0.152 52.93-23.718 52.779-52.637s-24.037-52.239-53.337-52.088l-205.26 1.062-20.837-201.513c-2.975-28.765-29.021-49.71-58.175-46.769-29.154 2.932-50.377 28.634-47.402 57.408l19.795 191.427-255.781 1.323-21.030-203.388c-2.975-28.765-29.021-49.71-58.175-46.769-29.154 2.932-50.377 28.634-47.402 57.408l19.989 193.301-196.9 1.019c-29.305 0.151-52.937 23.718-52.784 52.637s24.035 52.239 53.34 52.088l207.166-1.072 25.966 251.11-194.99 1.009c-29.305 0.152-52.937 23.718-52.783 52.637s24.035 52.239 53.34 52.088l205.256-1.062 20.837 201.509c2.975 28.77 29.021 49.713 58.175 46.777s50.377-28.639 47.402-57.408zM401.804 568l-25.804-246.699 254.196-1.301 25.804 246.699-254.196 1.301z" />
<glyph unicode="&#xe95a;" glyph-name="instagram" d="M788 792c-17.888 0-35.415-7.231-48.003-19.885-12.709-12.654-19.997-30.189-19.997-48.146 0-17.836 7.288-35.431 19.997-48.085 12.588-12.594 30.115-19.885 48.003-19.885 17.952 0 35.416 7.291 48.064 19.885 12.712 12.654 19.936 30.249 19.936 48.085 0 17.957-7.224 35.492-19.936 48.146-12.592 12.654-30.112 19.885-48.064 19.885zM508.030 272c-94.816 0-172.030 78.902-172.030 176 0 97.037 77.155 176 172.030 176 94.815 0 171.97-78.963 171.97-176 0-97.098-77.155-176-171.97-176zM516 712c-143.404 0-260-116.667-260-259.971 0-143.42 116.596-260.029 260-260.029 143.346 0 260 116.609 260 260.029 0 143.304-116.654 259.971-260 259.971zM928 215.179c0-105.419-84.936-191.179-189.403-191.179h-453.194c-104.408 0-189.403 85.76-189.403 191.179v457.582c0 105.478 84.995 191.238 189.403 191.238h453.194c104.467 0 189.403-85.76 189.403-191.238v-457.582zM743.619 960h-455.238c-154.654 0-280.381-126.724-280.381-282.605v-458.85c0-155.826 125.726-282.546 280.381-282.546h455.238c154.597 0 280.381 126.784 280.381 282.546v458.85c0 155.881-125.784 282.605-280.381 282.605z" />
<glyph unicode="&#xe95b;" glyph-name="laptop" d="M816.544 832h-616.544c-97.202 0-136-38.798-136-136v-500h896v500c0 86.462-46.248 136-143.456 136zM160 680c0 35.346 4.654 56 40 56h616.544c35.352 0 47.456-20.654 47.456-56v-435.024h-704v435.024zM0 152h1024v-6c0-49.704-53.728-90-120-90h-784c-66.274 0-120 40.296-120 90v6z" />
<glyph unicode="&#xe95c;" glyph-name="link" d="M415.213 9.738l-0.608-0.637c-46.218-46.78-108.028-72.108-172.223-72.108-64.144 0-125.952 25.335-172.164 72.108-94.99 96.145-94.99 252.499 0 348.577l199.053 201.475c94.99 96.145 249.463 96.145 344.387 0 21.351-21.611 21.351-56.7 0-78.312s-56.019-21.611-77.37 0c-52.286 52.922-137.36 52.922-189.646 0l-199.053-201.475c-52.286-52.922-52.286-139.032 0-191.954 52.187-52.822 137.039-52.922 189.349-0.299l83.556 85.411c21.351 21.611 56.019 21.611 77.37 0 21.233-21.491 21.351-56.311 0.354-77.951l-83.005-84.836zM603.592 887.497l0.608 0.637c46.218 46.78 108.028 72.108 172.223 72.108 64.144 0 125.952-25.335 172.164-72.108 94.99-96.145 94.99-252.499 0-348.577l-199.053-201.475c-94.99-96.145-249.463-96.145-344.387 0-21.351 21.611-21.351 56.7 0 78.312s56.019 21.611 77.37 0c52.286-52.922 137.36-52.922 189.646 0l199.053 201.475c52.286 52.922 52.286 139.032 0 191.954-52.187 52.822-137.039 52.922-189.349 0.299l-83.556-93.411c-21.351-21.611-56.019-21.611-77.37 0-21.233 21.491-21.351 56.311-0.354 77.951l83.005 92.836z" />
<glyph unicode="&#xe95d;" glyph-name="linkedin" d="M200.497 856c56.789-0.043 103.626-43.433 103.503-96.228-0.136-55.282-49.729-96.947-104.203-95.746-55.251-1.034-103.808 41.655-103.797 96.112 0 52.815 47.019 95.902 104.497 95.862zM253.144 32h-114.288c-14.832 0-26.856 12.264-26.856 27.392v497.219c0 15.126 12.024 27.389 26.856 27.389h114.288c14.832 0 26.856-12.262 26.856-27.389v-497.227c-0.002-15.12-12.024-27.384-26.856-27.384zM928 410.662c0 104.567-84.624 189.338-189.009 189.338h-29.935c-57.11 0-107.565-28.545-137.913-72.174-3.309-4.756-6.373-9.694-9.186-14.793-0.974 0.146-1.55 0.222-1.563 0.196v61.226c0 6.298-5.098 11.406-11.387 11.406h-145.619c-6.287 0-11.387-5.106-11.387-11.406v-530.934c0-6.296 5.094-11.408 11.382-11.408l148.793-0.040c6.29 0 11.39 5.112 11.39 11.408v306.738c0 53.022 42.215 97.046 95.142 97.645 27.018 0.306 51.511-10.538 69.165-28.234 17.421-17.441 28.192-41.557 28.192-68.182v-308.006c0-6.296 5.098-11.4 11.382-11.4l149.164-0.040c6.288 0 11.384 5.104 11.384 11.408v367.254h0.008z" />
<glyph unicode="&#xe95e;" glyph-name="list" d="M92 640c50.81 0 92 41.19 92 92s-41.19 92-92 92c-50.81 0-92-41.19-92-92s41.19-92 92-92zM985.68 688h-683.361c-21.163 0-38.319 21.49-38.319 48s17.156 48 38.319 48h683.361c21.16 0 38.32-21.49 38.32-48s-17.16-48-38.32-48zM985.68 408h-683.361c-21.163 0-38.319 21.49-38.319 48s17.156 48 38.319 48h683.361c21.16 0 38.32-21.49 38.32-48s-17.16-48-38.32-48zM302.319 120h683.361c21.16 0 38.32 21.488 38.32 48 0 26.51-17.16 48-38.32 48h-683.361c-21.163 0-38.319-21.49-38.319-48 0-26.512 17.156-48 38.319-48zM184 452c0-50.81-41.19-92-92-92s-92 41.19-92 92c0 50.81 41.19 92 92 92s92-41.19 92-92zM92 80c50.81 0 92 41.192 92 92 0 50.81-41.19 92-92 92s-92-41.19-92-92c0-50.808 41.19-92 92-92z" />
<glyph unicode="&#xe95f;" glyph-name="lock" d="M800 678.346v-102.346c24.096-1.246 48.824-2.911 65.848-11.565 20.12-10.226 36.232-25.538 46.992-44.658 11.264-20.021 15.16-39.192 15.16-72.354v-379.999c0-33.168-3.896-52.336-15.16-72.36-10.76-19.12-26.872-34.432-46.992-44.656-21.064-10.704-41.232-14.408-76.124-14.408h-555.448c-34.891 0-55.062 3.704-76.128 14.408-20.118 10.224-36.228 25.536-46.987 44.656-11.266 20.024-15.161 39.192-15.161 72.36v379.999c0 33.162 3.895 52.333 15.161 72.354 10.759 19.121 26.87 34.433 46.987 44.658 17.025 8.654 38.754 11.33 57.852 11.565v102.346c0 155.523 132.365 281.654 296 281.654s288-126.131 288-281.654zM248 480c-30.928 0-56-25.072-56-56v-336c0-30.928 25.072-56 56-56h528c30.928 0 56 25.072 56 56v336c0 30.928-25.072 56-56 56h-528zM704 576v103.469c0 101.927-91.595 185.414-199.843 185.414s-192.157-87.369-192.157-189.295v-99.588h392z" />
<glyph unicode="&#xe960;" glyph-name="loudspeaker" d="M961.123 716.151c-8.257 12.461-24.67 15.59-36.649 7.007-11.989-8.593-15-25.64-6.742-38.101 35.033-52.818 53.554-116.53 53.554-184.235 0-67.457-19.374-133.422-54.538-185.735-8.327-12.4-5.419-29.479 6.511-38.144 4.595-3.337 9.863-4.944 15.069-4.944 8.317 0 16.505 4.087 21.631 11.711 41.896 62.316 64.041 137.394 64.041 217.112 0 78.864-21.742 153.325-62.877 215.329zM876.114 636.952c-8.013 12.538-23.947 15.7-35.586 7.046-11.628-8.643-14.55-25.824-6.535-38.363 19.751-30.884 30.19-68.206 30.19-107.921 0-39.57-10.918-78.204-30.736-108.805-8.093-12.485-5.268-29.687 6.31-38.403 4.46-3.36 9.574-4.979 14.64-4.979 8.073 0 16.009 4.108 20.985 11.794 26.151 40.347 39.961 88.893 39.961 140.394 0 50.952-13.568 99.090-39.231 139.238zM69.942 338.536c-3.63 22.64 11.093 44.050 32.884 47.821s42.399-11.524 46.029-34.164l40.634-253.427c5.149-32.113 31.891-55.651 63.226-55.651 18.845 0 34.122 15.872 34.122 35.45 0 2.045-0.17 4.086-0.509 6.1l-42.629 253.548c-3.801 22.609 10.759 44.139 32.52 48.088s42.485-11.177 46.286-33.787l42.629-253.548c1.133-6.737 1.702-13.563 1.702-20.402 0-65.482-51.094-118.565-114.122-118.565-70.445 0-130.564 52.916-142.139 125.109l-40.634 253.427zM108 681.935c-11.046 0-20-8.954-20-20v-256c0-11.046 8.954-20 20-20h192c11.046 0 20 8.954 20 20v256c0 11.046-8.954 20-20 20h-192zM108 769.935h192c59.647 0 108-48.353 108-108l-7.561-15.212c0-48.45-4.427-127.681 0-226.301l7.561-14.487c0-59.647-48.353-108-108-108-24.45 0-42.787 0-55.012 0-30.442 0-76.105 0-136.988 0-59.647 0-108 48.353-108 108v256c0 59.647 48.353 108 108 108zM691.543 795.087c-77.473-64.929-188.193-114.787-299.543-151.007v-221.013c112.923-34.777 223.741-92.877 299.543-172.598v544.618zM779.543 899.912v-778.234c0-44.234-57.94-60.814-81.34-23.276-78.538 125.993-192.898 208.355-345.202 248.195l-1.238 371.479c151.057 44.264 267.528 114.528 350.476 210.592 26.646 30.859 77.303 12.015 77.303-28.756z" />
<glyph unicode="&#xe961;" glyph-name="media" d="M673.94 5.136c-22.034-37.034-67.435-61.136-117.94-61.136-71.051 0-132 47.699-132 112s60.949 112 132 112c19.995 0 39.19-3.778 56.451-10.64v383.697c0 18.751 13.026 34.986 31.331 39.049l323.549 71.827c24.978 5.545 48.669-13.463 48.669-39.049v-469.498c0-2.027-0.151-4.019-0.442-5.965 0.292-3.097 0.442-6.239 0.442-9.421 0-64.301-60.949-112-132-112s-132 47.699-132 112c0 64.301 60.949 112 132 112 18.292 0 35.915-3.162 52-8.954v140.67l-243.549-51.662v-264.054c0-12.687-7.738-34.55-18.511-50.864zM936 453.496v109.534l-243.549-54.067v-107.129l243.549 51.662zM884 96c30.57 0 52 16.772 52 32s-21.43 32-52 32c-30.57 0-52-16.772-52-32s21.43-32 52-32zM556 24c30.57 0 52 16.772 52 32s-21.43 32-52 32c-30.57 0-52-16.772-52-32s21.43-32 52-32zM404.019 768c95.067 0 171.981-77.324 171.981-172.004 0-8.685-0.649-17.304-1.934-25.802-12.607-83.386-84.624-146.194-170.046-146.194-95.091 0-172.019 77.307-172.019 171.996 0 94.682 76.933 172.004 172.019 172.004zM404.019 692.945c-52.462 0-95.575-43.331-95.575-96.949 0-53.624 43.106-96.942 95.575-96.942 47.055 0 87.317 35.114 94.431 82.16 0.734 4.854 1.106 9.789 1.106 14.782 0 53.62-43.099 96.949-95.536 96.949zM635.998 744c24.286 0 43.965-19.732 44.002-44.009 0-24.296-19.679-43.991-44.002-43.991-24.318 0-43.998 19.695-43.998 43.991 0 24.277 19.679 44.009 43.998 44.009zM609.702 872.186h73.898c81.952 0 131.868-47.725 131.868-128.186v-38.451c0-26.51-21.49-48-48-48s-48 21.49-48 48v38.451c0 26.454-5.996 32.186-35.868 32.186h-97.854c-39.765 0-72 32.235-72 72v18.222h-215.665v-18.222c0-39.765-32.235-72-72-72h-79.043c-40.097 0-49.182-7.496-49.182-32.186v-358.27c0-24.832 5.115-29.73 33.182-29.73h356.908c26.51 0 48-21.49 48-48s-21.49-48-48-48h-356.908c-80.176 0-129.182 46.922-129.182 125.73v358.27c0 82.225 55.703 128.186 145.182 128.186h55.087c1.526 50.087 42.61 90.222 93.067 90.222h221.443c50.457 0 91.541-40.135 93.067-90.222z" />
<glyph unicode="&#xe962;" glyph-name="megaphone" d="M963.128 740.963c-7.992 12.974-23.88 16.23-35.48 7.295-11.608-8.946-14.52-26.694-6.528-39.667 33.92-54.988 51.848-121.318 51.848-191.807 0-70.23-18.76-138.906-52.8-193.369-8.064-12.909-5.248-30.69 6.304-39.711 4.448-3.474 9.544-5.147 14.584-5.147 8.056 0 15.984 4.255 20.944 12.192 40.56 64.877 62 143.042 62 226.035 0 82.106-21.048 159.627-60.872 224.179zM873.608 660.401c-7.992 12.962-23.88 16.23-35.488 7.284-11.6-8.935-14.512-26.697-6.52-39.658 19.704-31.927 30.112-70.51 30.112-111.567 0-40.906-10.888-80.846-30.656-112.482-8.072-12.906-5.248-30.69 6.296-39.7 4.448-3.474 9.552-5.147 14.6-5.147 8.056 0 15.968 4.246 20.928 12.192 26.080 41.71 39.856 91.896 39.856 145.137 0 52.674-13.528 102.438-39.128 143.942zM672.010 936.191c28.943 46.397 103.99 28.396 103.99-29.54v-760.147c0-51.92-68.81-78.992-101.554-31.8-3.33 4.8-6.767 9.784-10.314 14.936-31.379 45.555-71.364 103.604-121.913 152.849-50.051 48.761-105.578 83.96-167.135 91.11-8.718-20.41-23.348-37.703-41.746-49.738l63.679-298.548c9.53-44.68-24.628-86.768-70.423-86.768h-30.21c-33.99 0-63.35 23.712-70.424 56.872l-69.857 327.516c-20.235 12.799-36.074 31.893-44.75 54.521h-39.354c-39.764 0-72 32.155-72 71.822v151.623c0 39.666 32.236 71.822 72 71.822h39.354c16.102 41.998 56.882 71.822 104.646 71.822h56c43.267 0 80.804-24.474 99.458-60.301 51.846 5.432 103.68 32.234 153.863 74.946 56.214 47.846 106.375 112.38 146.69 177.005zM225.227 305.63l63.333-296.926c0.786-3.688 4.048-6.32 7.825-6.32h30.21c5.088 0 8.883 4.672 7.825 9.64l-62.625 293.606h-46.567zM609.294 350.999c-57.846 56.354-133.134 108.038-225.294 117.982v120.283c76.773 8.683 145.606 47.686 203.633 97.074 33.463 28.482 64.371 61.274 92.367 95.734v-510.706c-20.892 26.63-44.521 54.124-70.706 79.633zM104 441.294v167.584h-32c-4.418 0-8-3.574-8-7.981v-151.623c0-4.407 3.582-7.98 8-7.98h32zM216 648.779c-8.837 0-16-7.146-16-15.961v-215.465c0-8.815 7.163-15.961 16-15.961h56c8.837 0 16 7.146 16 15.961v215.465c0 8.815-7.163 15.961-16 15.961h-56z" />
<glyph unicode="&#xe963;" glyph-name="news" d="M0 720c0 132.548 107.452 240 240 240h544c132.552 0 240-107.452 240-240v-544c0-132.552-107.448-240-240-240h-544c-132.548 0-240 107.448-240 240v544zM240 864c-79.529 0-144-64.471-144-144v-544c0-79.528 64.471-144 144-144h544c79.528 0 144 64.472 144 144v544c0 79.529-64.472 144-144 144h-544zM264 668c-26.51 0-48 21.49-48 48s21.49 48 48 48h496c26.51 0 48-21.49 48-48s-21.49-48-48-48h-496zM266.5 484c-26.51 0-48 21.49-48 48s21.49 48 48 48h147c26.51 0 48-21.49 48-48s-21.49-48-48-48h-147zM266.667 308c-26.51 0-48 21.49-48 48s21.49 48 48 48h149.333c26.51 0 48-21.49 48-48s-21.49-48-48-48h-149.333zM264 124c-26.51 0-48 21.49-48 48s21.49 48 48 48h496c26.51 0 48-21.49 48-48s-21.49-48-48-48h-496zM600 496v-96h112v96h-112zM584 592h144c44.183 0 80-35.817 80-80v-128c0-44.183-35.817-80-80-80h-144c-44.183 0-80 35.817-80 80v128c0 44.183 35.817 80 80 80z" />
<glyph unicode="&#xe964;" glyph-name="off" d="M560 384.148c0-26.51-21.49-48-48-48s-48 21.49-48 48v527.852c0 26.51 21.49 48 48 48s48-21.49 48-48v-527.852zM258.062 705.57c21.145 15.99 51.248 11.811 67.237-9.334s11.811-51.248-9.334-67.237c-82.541-62.418-131.966-159.561-131.966-264.999 0-183.359 148.641-332 332-332s332 148.641 332 332c0 108.917-52.77 208.895-139.921 270.832-21.609 15.357-26.676 45.323-11.319 66.932s45.323 26.676 66.932 11.319c112.225-79.757 180.308-208.747 180.308-349.083 0-236.378-191.622-428-428-428s-428 191.622-428 428c0 135.847 63.777 261.197 170.062 341.57z" />
<glyph unicode="&#xe965;" glyph-name="operations" d="M660 820.584v-124.584c0-26.51-21.49-48-48-48s-48 21.49-48 48v162.998c-16.896 3.288-34.275 5.002-52 5.002-14.94 0-29.634-1.218-44-3.569v-164.431c0-26.51-21.49-48-48-48s-48 21.49-48 48v129.472c-83.525-49.195-143.263-141.057-154.197-249.472h118.884c26.51 0 48-21.49 48-48s-21.49-48-48-48h-200.688c-22.578 0-40-16.63-40-36s17.422-36 40-36h752c22.578 0 40 16.63 40 36s-17.422 36-40 36h-208.039c-26.51 0-48 21.49-48 48s21.49 48 48 48h126.236c-10.582 104.921-66.872 194.339-146.196 244.584zM901.533 312.647c-21.917-209.047-187.211-372.647-389.533-372.647s-367.616 163.601-389.533 372.647c-68.369 6.575-122.467 62.429-122.467 131.353 0 68.552 53.516 124.175 121.363 131.242 16.678 214.804 184.424 384.758 390.637 384.758s373.96-169.954 390.637-384.758c67.847-7.067 121.363-62.69 121.363-131.242 0-68.924-54.098-124.778-122.467-131.353zM804.779 312h-585.558c21.243-156.749 144.941-276 292.779-276s271.535 119.251 292.779 276z" />
<glyph unicode="&#xe966;" glyph-name="p" d="M0 720c0 132.548 107.452 240 240 240h544c132.552 0 240-107.452 240-240v-544c0-132.552-107.448-240-240-240h-544c-132.548 0-240 107.448-240 240v544zM240 864c-79.529 0-144-64.471-144-144v-544c0-79.528 64.471-144 144-144h544c79.528 0 144 64.472 144 144v544c0 79.529-64.472 144-144 144h-544zM344 680h156.96c56.64 0 101.52-11.76 134.64-35.28 33.6-23.040 50.4-60.96 50.4-113.76 0-51.84-17.040-90.96-51.12-117.36s-77.76-39.6-131.040-39.6h-61.2v-164.16h-98.64v470.16zM497.36 452.48c61.44 0 92.16 26.16 92.16 78.48 0 24.96-7.92 42.96-23.76 54-15.36 11.040-39.12 16.56-71.28 16.56h-51.84v-149.040h54.72z" />
<glyph unicode="&#xe967;" glyph-name="paint-bucket" d="M389.982 664.302l-291.771-298.595 586.398-0.155-294.627 298.75zM322.562 732.666l-143.619 145.629c-18.614 18.875-18.403 49.266 0.472 67.881s49.266 18.403 67.881-0.472l522.335-529.645c27.705-28.093 27.639-73.251-0.148-101.263l-315.519-318.070c-34.227-34.504-89.946-34.729-124.45-0.501-0.251 0.25-0.251 0.25-0.501 0.501l-304.502 306.964c-33.851 34.125-34.058 89.098-0.465 123.476l298.517 305.499zM913.977 223.698c52.954-58.52 85.641-103.753 98.062-135.698 18.664-48 36.756-155.055-98.336-155.055-3.126 0-3.558 0-1.295 0-127.126 0.153-110.216 107.089-91.566 155.055 12.42 31.941 43.374 77.167 92.861 135.677v0.323l0.141-0.156 0.132 0.156v-0.302z" />
<glyph unicode="&#xe968;" glyph-name="panel" d="M400 128v632h-248c-30.928 0-56-25.072-56-56v-520c0-30.928 25.072-56 56-56h248zM496 128h376c30.928 0 56 25.072 56 56v520c0 30.928-25.072 56-56 56h-376v-632zM152 856h720c83.947 0 152-68.053 152-152v-520c0-83.947-68.053-152-152-152h-720c-83.947 0-152 68.053-152 152v520c0 83.947 68.053 152 152 152zM208 600c-26.51 0-48 21.49-48 48s21.49 48 48 48h84c26.51 0 48-21.49 48-48s-21.49-48-48-48h-84zM208 448c-26.51 0-48 21.49-48 48s21.49 48 48 48h84c26.51 0 48-21.49 48-48s-21.49-48-48-48h-84zM208 296c-26.51 0-48 21.49-48 48s21.49 48 48 48h84c26.51 0 48-21.49 48-48s-21.49-48-48-48h-84z" />
</font>
</defs>
</svg>
